#VERSION:0.83;
#TITLE:Bluey Theme Tune;
#SUBTITLE:(No CMOD);
#ARTIST:Bluey;
#TITLETRANSLIT:;
#SUBTITLETRANSLIT:;
#ARTISTTRANSLIT:;
#GENRE:;
#ORIGIN:;
#CREDIT:Kerpa;
#BANNER:blueytheme-bn.png;
#BACKGROUND:blueytheme-bg.png;
#PREVIEWVID:;
#JACKET:blueytheme-jacket.png;
#CDIMAGE:kerpa-cd.png;
#DISCIMAGE:;
#LYRICSPATH:;
#CDTITLE:kerpa-cd.png;
#MUSIC:Bluey.ogg;
#OFFSET:0.000000;
#SAMPLESTART:28.798000;
#SAMPLELENGTH:10.971000;
#SELECTABLE:YES;
#DISPLAYBPM:175.000000;
#BPMS:0.000=175.000;
#STOPS:;
#DELAYS:;
#WARPS:;
#TIMESIGNATURES:0.000=4=4;
#TICKCOUNTS:0.000=4;
#COMBOS:0.000=1;
#SPEEDS:0.000=1.000=0.000=0;
#SCROLLS:0.000=1.000;
#FAKES:;
#LABELS:0.000=Song Start;
#BGCHANGES:;
#KEYSOUNDS:;
#ATTACKS:
;

//---------------dance-single - Kerpa----------------
#NOTEDATA:;
#CHARTNAME:;
#STEPSTYPE:dance-single;
#DESCRIPTION:Kerpa;
#CHARTSTYLE:;
#DIFFICULTY:Challenge;
#METER:11;
#RADARVALUES:0.487070,0.632620,0.045663,0.213093,0.228314,224.000000,221.000000,3.000000,14.000000,0.000000,0.000000,0.000000,0.000000,0.000000,0.487070,0.632620,0.045663,0.213093,0.228314,224.000000,221.000000,3.000000,14.000000,0.000000,0.000000,0.000000,0.000000,0.000000;
#CREDIT:;
#DISPLAYBPM:175.000000;
#NOTES:
0000
0000
0000
0000
,
0000
0000
0000
0000
,
0000
0000
0000
0000
,
0000
0000
0000
0000
0000
0000
0000
0000
0000
0000
0000
0000
0000
0000
0000
0000
0000
0000
0000
0000
0000
0000
0000
0000
0000
0000
0000
0000
0000
0000
0000
1000
,
0001
0010
0100
1000
0000
0010
0000
0100
,
0000
0000
0001
0000
0010
0000
0000
0000
0100
0000
1000
0001
0100
0000
0000
0000
,
0010
1000
0100
0010
0000
0001
0000
1000
,
0000
0000
0100
0000
1000
0000
0000
0000
0002
0000
0000
0003
0100
0000
0010
0000
,
1000
0000
0100
0000
0010
0001
0100
0000
,
0110
0000
1000
0001
0010
0000
0100
1000
,
0001
0000
0000
0000
0100
0000
0000
0000
0001
0000
1000
0000
0001
0000
0000
0020
,
0000
0030
0001
0100
0010
1000
0000
0100
,
0000
0010
0001
1000
0010
0000
0100
0000
,
0001
0000
1000
0100
0010
0001
0000
0100
,
0000
0000
0010
0000
1000
0000
0001
0000
0010
0000
0000
0200
0000
0300
2000
0000
,
0000
3000
0000
0000
0001
0000
0100
0000
0010
0000
1000
0000
0000
0000
0100
0000
,
0000
0010
0000
0001
1000
0000
0010
0000
,
0100
0000
0000
0001
0010
0100
0010
0100
1000
0001
0100
0010
,
1000
0000
0100
0000
0010
0000
0100
0000
0010
0000
0001
0000
1000
0000
0000
0000
0000
0000
0001
0000
0000
2000
0000
0000
,
0000
0000
0000
3000
0001
0100
0010
1000
,
0000
0100
0000
0010
0000
0001
1000
0000
,
0010
0000
0100
0001
1000
0000
0000
0000
0100
0000
0010
0000
0001
0000
1000
0000
,
0000
0000
0000
0000
0010
0000
0000
0000
0000
0000
0000
0100
0002
0000
0000
0000
0000
0000
0003
0000
0010
0000
0000
0000
0100
0000
0000
0000
0000
0000
0000
0000
,
1100
0000
0000
0000
0000
0000
0000
0000
0001
0000
0000
0000
0000
0000
0000
0100
0010
0000
0000
0000
1000
0000
0000
0000
0001
0000
0000
0000
0010
0000
0000
0000
,
0000
0000
0100
0000
0000
0000
2000
0000
0000
3000
0010
0000
0100
0000
0000
0000
,
0001
0000
0000
0000
0000
0000
0000
0000
0010
0000
0000
0000
0000
0000
0000
0001
1000
0000
0000
0000
0010
0000
0000
0000
0100
0000
0000
0000
0001
0000
0000
0000
,
0000
0010
0000
0100
1000
0010
0100
0000
,
0000
0000
0000
0000
0001
0000
1000
0010
,
0100
0000
0001
0000
0010
0100
1000
0000
,
0020
0000
0030
0000
0100
0001
0010
0100
,
0000
0000
1000
0000
0000
0000
0020
0000
0000
0030
0000
0000
0100
0000
0000
0000
,
0020
0000
0000
0030
0100
0000
0010
0000
1000
0000
0000
0000
0100
0000
0000
0000
,
0010
0001
0100
0000
0101
0000
0001
0010
,
0100
0000
1000
0100
1000
0000
0010
0000
,
1000
0000
0001
0000
1000
0200
0000
0000
0000
0000
0300
0000
1000
0000
0010
0000
,
0100
0001
0000
0010
0000
0100
1000
0001
,
0100
0000
0010
0000
1000
0000
0001
0010
,
0100
1000
0000
0010
0000
0100
0001
1000
,
0100
0000
0000
0020
0000
0030
0002
0000
0000
0003
0000
0000
1000
0000
0010
0000
,
0100
0001
0000
0010
0000
0100
0000
1000
,
0001
0000
0000
0100
0000
0000
0010
0000
0000
1000
0100
0010
,
0100
0010
0001
1000
0010
0100
0001
0010
0100
0010
0100
1000
,
0001
0000
1000
0002
0000
0000
0000
0000
,
0000
0000
0000
0003
;

//---------------dance-single - Kerpa----------------
#NOTEDATA:;
#CHARTNAME:;
#STEPSTYPE:dance-single;
#DESCRIPTION:Kerpa;
#CHARTSTYLE:;
#DIFFICULTY:Easy;
#METER:11;
#RADARVALUES:0.245709,0.313361,0.000000,0.121767,0.000000,113.000000,113.000000,0.000000,8.000000,0.000000,0.000000,0.000000,0.000000,0.000000,0.245709,0.313361,0.000000,0.121767,0.000000,113.000000,113.000000,0.000000,8.000000,0.000000,0.000000,0.000000,0.000000,0.000000;
#CREDIT:;
#DISPLAYBPM:175.000000;
#NOTES:
// measure 0
1000
0000
0001
0000
,  // measure 1
0100
0000
0010
0000
,  // measure 2
1000
0001
0001
0000
,  // measure 3
0010
0000
0100
0000
,  // measure 4
0001
0100
0100
0020
,  // measure 5
0000
0030
0100
0100
,  // measure 6
0010
0100
0000
0100
,  // measure 7
0000
1000
0000
0000
,  // measure 8
0000
0100
0000
0010
,  // measure 9
0000
1000
0000
0100
,  // measure 10
0000
0010
0000
0001
,  // measure 11
0000
0001
0001
0000
,  // measure 12
0000
0000
0000
1000
,  // measure 13
0000
1000
0000
0010
,  // measure 14
0000
1000
0000
0100
,  // measure 15
0000
0001
0010
0000
,  // measure 16
0000
0000
0000
0000
,  // measure 17
0100
0001
0010
0001
,  // measure 18
0100
0100
1000
0100
,  // measure 19
1000
1000
1000
0010
,  // measure 20
0010
0000
0000
0000
,  // measure 21
0000
0100
0100
0001
,  // measure 22
0001
1000
1000
0100
,  // measure 23
0100
0001
0010
0002
,  // measure 24
0003
0001
0000
0100
,  // measure 25
0001
0010
1000
0100
,  // measure 26
0100
0000
1000
0100
,  // measure 27
0010
0010
0001
1000
,  // measure 28
0100
0001
0010
1000
,  // measure 29
0020
0030
0100
0010
,  // measure 30
0000
0100
0000
0001
,  // measure 31
0000
1000
0000
0100
,  // measure 32
0000
0010
0000
0001
,  // measure 33
0000
0010
0000
0100
,  // measure 34
0000
1000
0000
0010
,  // measure 35
0000
1000
0010
0000
,  // measure 36
2000
0000
3000
0000
,  // measure 37
0000
0000
0010
0010
,  // measure 38
0100
0100
0000
1000
,  // measure 39
0100
0010
0010
0001
,  // measure 40
0001
0100
0010
0000
,  // measure 41
0000
0000
0100
0010
,  // measure 42
1000
2000
3000
0100
,  // measure 43
0100
0000
0020
0030
,  // measure 44
0200
0300
0001
0000
,  // measure 45
0200
0000
0000
0300
;
