#VERSION:0.83;
#TITLE:Blue Dragon English Op;
#SUBTITLE:;
#ARTIST:Blue Dragon;
#TITLETRANSLIT:;
#SUBTITLETRANSLIT:;
#ARTISTTRANSLIT:;
#GENRE:;
#ORIGIN:;
#CREDIT:Gorilla v1.1.3 (Dancing Monkeys v1.06);
#BANNER:;
#BACKGROUND:;
#PREVIEWVID:;
#JACKET:;
#CDIMAGE:;
#DISCIMAGE:;
#LYRICSPATH:;
#CDTITLE:;
#MUSIC:Blue Dragon English opening.mp3;
#OFFSET:-0.694603;
#SAMPLESTART:44.107304;
#SAMPLELENGTH:12.000000;
#SELECTABLE:YES;
#BPMS:0.000=138.208;
#STOPS:;
#DELAYS:;
#WARPS:;
#TIMESIGNATURES:0.000=4=4;
#TICKCOUNTS:0.000=4;
#COMBOS:0.000=1;
#SPEEDS:0.000=1.000=0.000=0;
#SCROLLS:0.000=1.000;
#FAKES:;
#LABELS:0.000=Song Start;
#BGCHANGES:;
#KEYSOUNDS:;
#ATTACKS:
;

//---------------dance-single - Basic----------------
#NOTEDATA:;
#CHARTNAME:Basic;
#STEPSTYPE:dance-single;
#DESCRIPTION:Basic;
#CHARTSTYLE:;
#DIFFICULTY:Easy;
#METER:3;
#RADARVALUES:0.188961,0.189522,0.000000,0.049602,0.000000,80.000000,80.000000,0.000000,3.000000,0.000000,0.000000,0.000000,0.000000,0.000000,0.188961,0.189522,0.000000,0.049602,0.000000,80.000000,80.000000,0.000000,3.000000,0.000000,0.000000,0.000000,0.000000,0.000000;
#CREDIT:Basic;
#NOTES:
// measure 0
0000
0001
1000
0000
,  // measure 1
0001
0100
0000
0000
,  // measure 2
1000
0100
0000
0000
,  // measure 3
1000
1000
0001
0000
,  // measure 4
0001
0000
1000
0100
,  // measure 5
1000
0000
0001
0010
,  // measure 6
0002
0000
0003
0000
,  // measure 7
1000
0000
1000
0100
,  // measure 8
0001
0000
1000
0010
,  // measure 9
0001
0001
0000
0100
,  // measure 10
1000
1000
0000
0100
,  // measure 11
0001
0000
1000
0100
,  // measure 12
1000
1000
0000
1000
,  // measure 13
0001
0001
0000
0100
,  // measure 14
1000
1000
0000
0100
,  // measure 15
0001
0001
0000
0100
,  // measure 16
1000
1000
0000
0010
,  // measure 17
1000
1000
0000
0010
,  // measure 18
0001
0001
0000
0010
,  // measure 19
0001
0000
1000
0100
,  // measure 20
0001
0000
1000
1000
,  // measure 21
1000
1000
0000
0100
,  // measure 22
0001
0001
0000
0010
,  // measure 23
0001
0001
0000
0100
,  // measure 24
0001
0001
0000
0100
,  // measure 25
0001
0001
0000
0010
,  // measure 26
0000
1000
0000
1000
,  // measure 27
0001
0001
0000
0001
,  // measure 28
0000
2000
0000
0000
,  // measure 29
3000
0000
0002
0000
,  // measure 30
0000
0000
0000
0000
,  // measure 31
0000
0000
0000
0000
,  // measure 32
0000
0000
0000
0003
;
