#VERSION:0.83;
#TITLE:Blitzkrieg Bop (2016 Remaster);
#SUBTITLE:;
#ARTIST:Dancing Monkeys Project;
#TITLETRANSLIT:;
#SUBTITLETRANSLIT:;
#ARTISTTRANSLIT:;
#GENRE:;
#ORIGIN:;
#CREDIT:Gorilla v1.1.3 (Dancing Monkeys v1.06);
#BANNER:;
#BACKGROUND:;
#PREVIEWVID:;
#JACKET:;
#CDIMAGE:;
#DISCIMAGE:;
#LYRICSPATH:;
#CDTITLE:;
#MUSIC:Blitzkrieg Bop (2016 Remaster).mp3;
#OFFSET:-0.511896;
#SAMPLESTART:34.507729;
#SAMPLELENGTH:12.000000;
#SELECTABLE:YES;
#BPMS:0.000=176.000;
#STOPS:;
#DELAYS:;
#WARPS:;
#TIMESIGNATURES:0.000=4=4;
#TICKCOUNTS:0.000=4;
#COMBOS:0.000=1;
#SPEEDS:0.000=1.000=0.000=0;
#SCROLLS:0.000=1.000;
#FAKES:;
#LABELS:0.000=Song Start;
#BGCHANGES:;
#KEYSOUNDS:;
#ATTACKS:
;

//---------------dance-single - Basic----------------
#NOTEDATA:;
#CHARTNAME:Basic;
#STEPSTYPE:dance-single;
#DESCRIPTION:Basic;
#CHARTSTYLE:;
#DIFFICULTY:Easy;
#METER:3;
#RADARVALUES:0.177308,0.177441,0.000000,0.000000,0.000000,167.000000,167.000000,0.000000,0.000000,0.000000,0.000000,0.000000,0.000000,0.000000,0.177308,0.177441,0.000000,0.000000,0.000000,167.000000,167.000000,0.000000,0.000000,0.000000,0.000000,0.000000,0.000000,0.000000;
#CREDIT:Basic;
#NOTES:
// measure 0
0000
0000
0001
0000
,  // measure 1
0001
0000
1000
0000
,  // measure 2
0001
0000
1000
0000
,  // measure 3
1000
0000
0001
0000
,  // measure 4
1000
0000
0001
0000
,  // measure 5
0001
0000
1000
0000
,  // measure 6
0001
0000
0100
0000
,  // measure 7
1000
0000
0100
0000
,  // measure 8
0000
0000
0001
0000
,  // measure 9
0001
0000
1000
0000
,  // measure 10
0001
0000
1000
0000
,  // measure 11
0001
0000
1000
0000
,  // measure 12
1000
0000
0001
0000
,  // measure 13
1000
1000
0000
0000
,  // measure 14
0001
0000
1000
0000
,  // measure 15
0001
0001
0000
0000
,  // measure 16
1000
0000
0010
0000
,  // measure 17
0001
0000
0000
0010
,  // measure 18
0000
0000
1000
0000
,  // measure 19
0001
0000
0000
1000
,  // measure 20
0000
0000
0001
0000
,  // measure 21
0001
0000
0000
0000
,  // measure 22
1000
0000
0100
0000
,  // measure 23
1000
0000
0000
0000
,  // measure 24
0010
0000
1000
0000
,  // measure 25
1000
0000
0001
0000
,  // measure 26
0000
0000
0001
0000
,  // measure 27
1000
0000
0010
0000
,  // measure 28
0000
0000
1000
0000
,  // measure 29
0001
0000
1000
0000
,  // measure 30
1000
0000
0001
0000
,  // measure 31
0001
0000
1000
0000
,  // measure 32
0001
0000
1000
0000
,  // measure 33
0001
0000
0100
0000
,  // measure 34
0001
0000
1000
0000
,  // measure 35
0001
0000
1000
0000
,  // measure 36
0001
0000
1000
0000
,  // measure 37
0000
0000
1000
0000
,  // measure 38
0001
0000
1000
0000
,  // measure 39
1000
0000
0100
0000
,  // measure 40
0001
0000
1000
0000
,  // measure 41
1000
0000
1000
0000
,  // measure 42
0000
1000
0000
0001
,  // measure 43
0000
0001
0000
0000
,  // measure 44
0000
1000
0000
0001
,  // measure 45
0000
0001
0000
1000
,  // measure 46
0000
0001
0000
1000
,  // measure 47
0000
0010
0000
0001
,  // measure 48
0000
0001
0000
0000
,  // measure 49
0000
0001
0000
0100
,  // measure 50
0000
1000
0000
0001
,  // measure 51
0000
0001
0000
0000
,  // measure 52
1000
0000
0000
0010
,  // measure 53
0000
0001
0000
0000
,  // measure 54
1000
0000
0010
0000
,  // measure 55
0000
0010
0000
0000
,  // measure 56
0000
1000
0000
0001
,  // measure 57
0000
0001
0000
0100
,  // measure 58
0000
1000
0000
0001
,  // measure 59
0000
0001
0000
0001
,  // measure 60
0000
1000
0000
0010
,  // measure 61
0000
0001
0000
0000
,  // measure 62
1000
0000
0000
0010
,  // measure 63
0000
0001
0000
0000
,  // measure 64
1000
0000
0100
0000
,  // measure 65
0001
0000
0000
0001
,  // measure 66
0000
0100
0000
0000
,  // measure 67
1000
0000
0100
0000
,  // measure 68
0000
1000
0000
0001
,  // measure 69
0000
0001
0000
0001
,  // measure 70
0000
1000
0000
0001
,  // measure 71
0000
0100
0000
1000
,  // measure 72
0000
1000
0000
0001
,  // measure 73
0000
0001
0000
0000
,  // measure 74
0000
1000
0000
0001
,  // measure 75
0000
0001
0000
0000
,  // measure 76
0001
0000
0100
0000
,  // measure 77
0001
0000
0100
0000
,  // measure 78
1000
0000
0100
0000
,  // measure 79
1000
0000
0000
0010
,  // measure 80
0000
0001
0000
0100
,  // measure 81
0000
0001
0000
0000
,  // measure 82
0000
0001
0000
0100
,  // measure 83
0000
0001
0000
0000
,  // measure 84
0000
0001
0000
0100
,  // measure 85
0000
0001
0000
0000
,  // measure 86
1000
0000
0000
0010
,  // measure 87
0000
0001
0000
0000
,  // measure 88
0000
0001
0000
0010
,  // measure 89
0000
0000
1000
0000
,  // measure 90
1000
0000
0001
0000
,  // measure 91
1000
0000
1000
0000
,  // measure 92
1000
0000
0001
0000
,  // measure 93
0100
0000
0100
0000
,  // measure 94
0001
0000
0010
0000
,  // measure 95
0000
0000
0010
0000
;
