#TITLE:ONLYMP~1;
#SUBTITLE:;
#ARTIST:Dancing Monkeys Project;
#TITLETRANSLIT:;
#SUBTITLETRANSLIT:;
#ARTISTTRANSLIT:;
#GENRE:;
#CREDIT:Gorilla v1.1.3 (Dancing Monkeys v1.06);
#BANNER:S6PfIeC.png;
#BACKGROUND:maxresdefault.png;
#LYRICSPATH:;
#CDTITLE:;
#MUSIC:ONLYMP~1.mp3;
#OFFSET:-0.427208;
#SAMPLESTART:38.643875;
#SAMPLELENGTH:12.000000;
#SELECTABLE:YES;
#BPMS:0.000000=157.000000
;
#STOPS:
;
#BGCHANGES:0.000=New Project.avi=1.000=0=0=0=StretchNoLoop====,
99999=-nosongbg-=1.000=0=0=0 // don't automatically add -songbackground-
;
#KEYSOUNDS:;
#ATTACKS:;

//---------------dance-single - Basic----------------
#NOTES:
     dance-single:
     Basic:
     Easy:
     3:
     0.357731,0.382671,0.082295,0.058782,0.000000,426.000000,412.000000,14.000000,10.000000,0.000000,0.000000,0.357731,0.382671,0.082295,0.058782,0.000000,426.000000,412.000000,14.000000,10.000000,0.000000,0.000000:
0000
0000
0000
0000
,
1000
0001
0100
0010
,
0001
1000
0100
1000
,
0001
1000
0100
0010
,
0001
1000
0010
0100
,
1000
0001
0100
0010
,
0001
1000
0100
0001
,
1000
0001
0010
0100
,
1001
0100
0010
1000
,
0001
1000
0100
0001
,
1000
0001
0100
0010
,
0001
1000
0010
0100
,
0001
1000
0100
0010
,
1000
0001
0100
0010
,
0001
1000
0100
0010
,
0001
1000
0100
0001
,
1000
0001
0100
0010
,
0001
1000
0100
1000
,
0001
1000
0100
0001
,
1000
0001
0100
0010
,
0001
1000
0010
0100
,
0001
1000
0100
0010
,
0001
1000
0100
0001
,
1000
0001
0100
1000
,
0001
1000
0100
0010
,
0001
1000
0100
0001
,
1000
0001
0100
0010
,
1000
0001
0100
1000
,
0001
1000
0100
0010
,
1000
0001
0100
1000
,
0001
1000
0100
0001
,
1000
0001
0100
0010
,
1000
0001
0010
0100
,
0001
0010
1000
0100
,
1000
0010
0001
0100
,
1000
0100
1000
0010
,
1000
0010
0001
0100
,
0001
0100
1000
0010
,
0001
0100
0001
0010
,
0001
0100
0010
0100
,
2002
0000
0000
3003
,
1000
0001
0100
1000
,
0001
1000
0100
0001
,
1000
0001
0100
0010
,
0001
1000
0100
0001
,
0100
0001
0100
0010
,
1000
0001
0010
0100
,
0001
1000
0010
0100
,
2002
0000
0000
3003
,
0010
0001
0100
0010
,
1000
0001
0100
1000
,
0001
0100
0001
0100
,
1000
0001
0100
0010
,
0001
1000
0100
0001
,
1000
0001
0010
0100
,
0001
0100
0001
0010
,
1000
0001
0100
1000
,
0001
1000
0100
0010
,
0001
1000
0100
0000
,
1000
0001
0100
0010
,
0001
1000
1001
1001
,
0100
0010
0100
0001
,
1000
0100
1001
1001
,
0010
1000
0010
0100
,
0001
0100
1001
1001
,
0010
1000
0100
0010
,
1000
0010
1001
1001
,
0100
0001
0100
0010
,
0001
1000
0100
1000
,
0001
1000
0010
0100
,
1000
0001
0100
0010
,
1000
0001
0100
1000
,
0001
1000
0100
0010
,
0001
1000
0001
0100
,
1000
0001
0100
0010
,
1000
0001
0100
1000
,
0001
1000
0100
0001
,
1000
0001
0100
0010
,
1000
0001
0100
1000
,
0001
1000
0001
1000
,
0001
1000
0001
1000
,
0001
1000
0001
1000
,
0001
0100
1000
0010
,
1000
0100
1000
0010
,
0001
0100
0001
0010
,
1000
0010
0001
0100
,
1000
0010
0001
0100
,
0001
0100
0001
0010
,
1000
0100
0010
0100
,
1000
0001
0100
0010
,
2002
0000
0000
3003
,
0001
0010
0001
0100
,
1000
0001
0100
0010
,
0001
1000
0100
0010
,
0001
1000
0100
0001
,
0010
0001
0100
0010
,
1000
0001
0010
0100
,
0001
1000
0100
0010
,
2002
0000
0000
3003
,
0001
0100
0010
0100
,
0001
1000
0100
0001
,
1000
0001
0100
0010
,
0001
1000
0100
0010
,
0001
0100
0001
0010
,
1000
0001
0100
0001
,
1000
0100
0010
0001
,
0010
0100
1000
0010
,
2002
0000
0000
0000
,
0000
0000
3003
0000
;

//---------------dance-single - Standard----------------
#NOTES:
     dance-single:
     Standard:
     Medium:
     3:
     0.258641,0.245709,0.005878,0.000000,0.000000,308.000000,307.000000,1.000000,0.000000,0.000000,0.000000,0.258641,0.245709,0.005878,0.000000,0.000000,308.000000,307.000000,1.000000,0.000000,0.000000,0.000000:
0000
0000
0000
0000
0000
0000
0000
0000
,
1000
0000
0010
0000
1000
0000
0000
0000
,
0001
0000
0100
0000
0001
0000
0000
0000
,
1000
0000
0010
0000
1000
0000
0000
0000
,
1000
0000
0010
0000
1000
0000
0000
0000
,
1000
0000
0100
0000
1000
0000
0000
0000
,
0001
0000
0010
0000
0001
0000
0000
0000
,
1000
0000
0010
0000
1000
0000
0000
0000
,
1010
0000
0000
0000
0000
0000
0000
0000
,
1000
0000
0010
0000
0100
0000
0000
0000
,
1000
0000
0010
0000
1000
0000
0000
0000
,
1000
0000
0010
0000
1000
0000
0000
0000
,
1000
0000
0010
0000
0100
0000
0000
0000
,
1000
0000
0010
0000
1000
0000
0000
0000
,
0001
0000
0010
0000
0001
0000
0000
0000
,
0001
0000
0010
0000
0001
0000
0000
0000
,
0001
0000
0010
0000
0001
0000
0000
0000
,
1000
0000
0010
0000
0100
0000
0000
0000
,
1000
0000
0010
0000
0100
0000
0000
0000
,
1000
0000
0010
0000
1000
0000
0000
0000
,
1000
0000
0100
0000
1000
0000
0000
0000
,
1000
0000
0010
0000
1000
0000
0000
0000
,
1000
0000
0010
0000
0100
0000
0000
0000
,
1000
0000
0010
0000
1000
0000
0000
0000
,
1000
0000
0100
0000
1000
0000
0000
0000
,
1000
0000
0010
0000
0100
0000
0000
0000
,
1000
0000
0010
0000
1000
0000
0000
0000
,
1000
0000
0100
0000
1000
0000
0000
0000
,
1000
0000
0010
0000
0100
0000
0000
0000
,
1000
0000
0010
0000
1000
0000
0000
0000
,
1000
0000
0010
0000
0100
0000
0000
0000
,
1000
0000
0010
0000
1000
0000
0000
0000
,
1000
0000
0010
0000
1000
0000
0000
0000
,
1000
0000
0100
0000
0000
0000
0010
0000
,
1000
0000
0010
0000
0000
0000
0100
0000
,
0001
0000
0100
0000
0000
0000
0010
0000
,
1000
0000
0010
0000
0000
0000
0100
0000
,
0001
0000
0010
0000
0000
0000
0100
0000
,
0001
0000
0010
0000
0000
0000
0100
0000
,
0001
0000
0100
0000
0010
0000
0000
0000
,
1000
0000
0000
0000
0000
0000
0000
0000
,
1000
0000
0010
0000
1000
0000
0000
0000
,
1000
0000
0010
0000
0100
0000
0000
0000
,
1000
0000
0010
0000
1000
0000
0000
0000
,
1000
0000
0010
0000
0100
0000
0000
0000
,
1000
0000
0010
0000
1000
0000
0000
0000
,
0001
0000
0100
0000
0001
0000
0000
0000
,
1000
0000
0001
0000
1000
0000
0010
0000
,
1000
0000
0010
0000
0100
0000
0000
0000
,
1000
0000
0010
0000
1000
0000
0000
0000
,
1000
0000
0010
0000
1000
0000
0000
0000
,
0001
0000
0100
0000
0010
0000
0000
0000
,
1000
0000
0010
0000
1000
0000
0000
0000
,
0001
0000
0100
0000
0001
0000
0000
0000
,
0001
0000
0100
0000
0001
0000
0000
0000
,
0001
0000
0100
0000
0010
0000
0000
0000
,
1000
0000
0010
0000
1000
0000
0000
0000
,
1000
0000
0010
0000
0100
0000
0000
0000
,
0001
0000
0010
0000
0100
0000
0000
0000
,
1000
0000
0010
0000
1000
0000
0000
0000
,
1000
0000
0010
0000
0100
0000
0000
0000
,
1000
0000
0010
0000
0100
0000
0000
0000
,
1000
0000
0010
0000
1000
0000
0000
0000
,
0001
0000
0100
0000
0001
0000
0000
0000
,
0001
0000
0100
0000
0001
0000
0000
0000
,
1000
0000
0010
0000
0100
0000
0000
0000
,
0001
0000
0100
0000
0010
0000
0000
0000
,
1000
0000
0010
0000
1000
0000
0000
0000
,
1000
0000
0010
0000
0100
0000
0000
0000
,
1000
0000
0100
0000
0010
0000
0000
0000
,
1000
0000
0010
0000
1000
0000
0000
0000
,
1000
0000
0010
0000
1000
0000
0000
0000
,
1000
0000
0010
0000
0100
0000
0000
0000
,
1000
0000
0001
0000
0100
0000
0010
0000
,
1000
0000
0010
0000
1000
0000
0000
0000
,
0001
0000
0010
0000
0001
0000
0000
0000
,
1000
0000
0010
0000
0100
0000
0000
0000
,
1000
0000
0010
0000
1000
0000
0000
0000
,
0001
0000
0100
0000
0001
0000
0000
0000
,
0001
0000
0100
0000
0001
0000
0000
0000
,
0001
0000
0100
0000
0000
0000
0000
0000
,
1000
0000
0100
0000
0000
0000
0010
0000
,
0001
0000
0100
0000
0000
0000
0010
0000
,
1000
0000
0100
0000
0000
0000
0010
0000
,
0001
0000
0100
0000
0000
0000
0010
0000
,
1000
0000
0100
0000
0000
0000
0010
0000
,
1000
0000
0010
0000
0000
0000
0100
0000
,
0001
0000
0100
0000
0010
0000
0000
0000
,
1000
0000
0000
0000
0000
0000
0000
0000
,
1000
0000
0010
0000
1000
0000
0000
0000
,
1000
0000
0010
0000
0100
0000
0000
0000
,
0001
0000
0100
0000
0010
0000
0000
0000
,
1000
0000
0010
0000
1000
0000
0000
0000
,
1000
0000
0010
0000
1000
0000
0000
0000
,
0001
0000
0100
0000
0001
0000
0000
0000
,
0001
0000
0010
0000
0001
0000
0000
0000
,
1000
0000
0100
0000
1000
0000
0000
0000
,
0001
0000
0010
0000
0001
0000
0000
0000
,
0001
0000
0100
0000
0001
0000
0000
0000
,
0001
0000
0100
0000
0010
0000
0000
0000
,
1000
0000
0010
0000
0100
0000
0000
0000
,
1000
0000
0010
0000
1000
0000
0000
0000
,
1000
0000
0100
0000
1000
0000
0000
0000
,
0001
0000
0100
0000
0010
0000
0000
0000
,
1000
0000
0010
0000
1000
0000
0000
0000
,
0000
0000
0000
0000
0000
0000
0000
0000
,
0000
0000
0000
0000
0000
0000
0000
0000
,
0000
0000
0000
0000
0000
0000
0000
0000
,
;

//---------------dance-single - Heavy----------------
#NOTES:
     dance-single:
     Heavy:
     Hard:
     5:
     0.324141,0.277414,0.005878,0.000000,0.000000,386.000000,385.000000,1.000000,0.000000,0.000000,0.000000,0.324141,0.277414,0.005878,0.000000,0.000000,386.000000,385.000000,1.000000,0.000000,0.000000,0.000000:
0000
0000
0000
0000
0000
0000
0000
0000
,
0001
0000
0010
0000
1000
0000
0000
0010
,
1000
0000
0100
0000
0001
0000
0000
0100
,
0001
0000
0100
0000
1000
0000
0000
0100
,
0001
0000
0010
0000
1000
0000
0000
0010
,
1000
0000
0100
0000
0001
0000
0000
0100
,
1000
0000
0100
0000
0001
0000
0000
0100
,
0001
0000
0100
0000
1000
0000
0000
0000
,
1010
0000
0000
0000
0000
0000
0000
0000
,
0001
0000
0010
0000
0100
0000
0000
1000
,
0001
0000
0010
0000
1000
0000
0000
0010
,
1000
0000
0010
0000
0001
0000
0000
0010
,
0001
0000
0010
0000
0100
0000
0000
1000
,
0001
0000
0010
0000
1000
0000
0000
0010
,
0001
0000
0010
0000
1000
0000
0000
0010
,
0001
0000
0100
0000
1000
0000
0000
0100
,
0001
0000
0010
0000
1000
0000
0000
0010
,
0001
0000
0010
0000
0100
0000
0000
1000
,
0001
0000
0010
0000
0100
0000
0000
1000
,
0001
0000
0010
0000
1000
0000
0000
0010
,
0001
0000
0010
0000
1000
0000
0000
0010
,
1000
0000
0100
0000
0001
0000
0000
0100
,
0001
0000
0010
0000
0100
0000
0000
1000
,
0001
0000
0010
0000
1000
0000
0000
0010
,
1000
0000
0100
0000
0001
0000
0000
0100
,
0001
0000
0010
0000
0100
0000
0000
1000
,
0001
0000
0010
0000
1000
0000
0000
0010
,
0001
0000
0100
0000
1000
0000
0000
0100
,
0001
0000
0010
0000
0100
0000
0000
1000
,
0001
0000
0010
0000
1000
0000
0000
0010
,
0001
0000
0010
0000
0100
0000
0000
1000
,
0001
0000
0010
0000
1000
0000
0000
0010
,
0001
0000
1000
0000
0010
0000
0000
0000
,
1000
0000
0010
0000
0000
0000
0100
0000
,
1000
0000
0100
0000
0000
0000
0010
0000
,
1000
0000
0100
0000
0000
0000
0010
0000
,
1000
0000
0100
0000
0000
0000
0010
0000
,
1000
0000
0100
0000
0000
0000
0010
0000
,
1000
0000
0100
0000
0000
0000
0010
0000
,
0001
0000
0010
0000
0001
0000
0000
0000
,
1000
0000
0000
0000
0000
0000
0000
0000
,
0001
0000
0010
0000
1000
0000
0000
0010
,
0001
0000
0010
0000
0100
0000
0000
1000
,
0001
0000
0010
0000
1000
0000
0000
0010
,
0001
0000
0010
0000
0100
0000
0000
1000
,
0001
0000
0010
0000
1000
0000
0000
0010
,
0001
0000
0100
0000
1000
0000
0000
0100
,
1000
0000
0001
0000
1000
0000
0001
0000
,
0001
0000
0010
0000
0100
0000
0000
1000
,
0001
0000
0010
0000
1000
0000
0000
0010
,
1000
0000
0100
0000
0001
0000
0000
0100
,
0001
0000
0010
0000
0001
0000
0000
0000
,
0001
0000
0010
0000
1000
0000
0000
0010
,
1000
0000
0010
0000
0001
0000
0000
0010
,
0001
0000
0100
0000
1000
0000
0000
0100
,
0001
0000
0010
0000
0001
0000
0000
0000
,
0001
0000
0010
0000
1000
0000
0000
0010
,
0001
0000
0010
0000
0100
0000
0000
1000
,
1000
0000
0010
0000
0100
0000
0000
0001
,
0001
0000
0010
0000
1000
0000
0000
0010
,
0001
0000
0010
0000
0100
0000
0000
1000
,
0001
0000
0010
0000
0100
0000
0000
1000
,
0001
0000
0010
0000
1000
0000
0000
0010
,
1000
0000
0010
0000
0001
0000
0000
0010
,
0001
0000
0010
0000
1000
0000
0000
0010
,
0001
0000
0010
0000
0100
0000
0000
1000
,
1000
0000
0010
0000
0100
0000
0000
0001
,
0001
0000
0010
0000
1000
0000
0000
0010
,
0001
0000
0010
0000
0100
0000
0000
1000
,
1000
0000
0100
0000
0010
0000
0000
0001
,
0001
0000
0010
0000
1000
0000
0000
0010
,
1000
0000
0100
0000
0001
0000
0000
0100
,
0001
0000
0010
0000
0100
0000
0000
1000
,
1000
0000
0010
0000
0100
0010
0000
0000
,
0001
0000
0010
0000
1000
0000
0000
0010
,
1000
0000
0010
0000
0001
0000
0000
0010
,
0001
0000
0010
0000
0100
0000
0000
1000
,
0001
0000
0010
0000
1000
0000
0000
0010
,
0001
0000
0010
0000
1000
0000
0000
0010
,
1000
0000
0010
0000
0001
0000
0000
0010
,
1000
0000
0010
0000
0000
0000
0000
0000
,
1000
0000
0010
0000
0000
0000
0100
0000
,
1000
0000
0100
0000
0000
0000
0010
0000
,
0001
0000
0100
0000
0000
0000
0010
0000
,
0001
0000
0010
0000
0000
0000
0100
0000
,
1000
0000
0100
0000
0000
0000
0010
0000
,
1000
0000
0100
0000
0000
0000
0010
0000
,
0001
0000
0010
0000
0001
0000
0000
0000
,
1000
0000
0000
0000
0000
0000
0000
0000
,
0001
0000
0010
0000
1000
0000
0000
0010
,
0001
0000
0010
0000
0100
0000
0000
1000
,
0001
0000
0100
0000
0001
0000
0100
0000
,
0001
0000
0010
0000
1000
0000
0000
0010
,
0001
0000
0100
0000
1000
0000
0000
0100
,
1000
0000
0010
0000
0001
0000
0000
0010
,
0001
0000
0100
0000
1000
0000
0000
0100
,
0001
0000
0100
0000
1000
0000
0000
0100
,
0001
0000
0100
0000
1000
0000
0000
0100
,
1000
0000
0100
0000
0001
0000
0000
0100
,
0001
0000
0010
0000
0001
0000
0000
0000
,
0001
0000
0010
0000
0100
0000
0000
1000
,
0001
0000
0010
0000
1000
0000
0000
0010
,
1000
0000
0010
0000
0001
0000
0000
0010
,
0001
0000
0010
0000
0001
0000
0000
0000
,
0001
0000
0010
0000
1000
0000
0000
0010
,
0000
0000
0000
0000
0000
0000
0000
0000
,
0000
0000
0000
0000
0000
0000
0000
0000
,
0000
0000
0000
0000
0000
0000
0000
0000
,
;

//---------------dance-single - Basic----------------
#NOTES:
     dance-single:
     :
     Beginner:
     3:
     0.183064,0.223225,0.000000,0.029391,0.000000,218.000000,218.000000,0.000000,5.000000,0.000000,0.000000,0.183064,0.223225,0.000000,0.029391,0.000000,218.000000,218.000000,0.000000,5.000000,0.000000,0.000000:
// measure 0
0000
0000
0000
0000
,  // measure 1
1000
0000
0100
0000
,  // measure 2
0001
0000
1000
0000
,  // measure 3
1000
0000
0010
0000
,  // measure 4
1000
1000
0000
0100
,  // measure 5
0000
0001
0001
0000
,  // measure 6
0001
0000
0100
0000
,  // measure 7
1000
0000
0010
0000
,  // measure 8
0001
0000
0010
0000
,  // measure 9
0001
0000
0100
0000
,  // measure 10
0100
0000
0100
0000
,  // measure 11
0001
0000
0010
0000
,  // measure 12
0001
0000
0100
0000
,  // measure 13
1000
0000
0100
0000
,  // measure 14
0001
0000
0100
0000
,  // measure 15
0001
0000
0100
0000
,  // measure 16
1000
0000
0100
0000
,  // measure 17
0001
0000
0100
0000
,  // measure 18
0001
0001
0000
0001
,  // measure 19
0000
0001
0100
0000
,  // measure 20
0001
1000
0000
0100
,  // measure 21
0001
1000
0000
0010
,  // measure 22
0000
1000
0000
0001
,  // measure 23
0000
0001
0000
1000
,  // measure 24
0000
1000
0000
0010
,  // measure 25
0000
1000
0000
0001
,  // measure 26
0000
0001
0000
0010
,  // measure 27
1000
0000
0100
0000
,  // measure 28
0001
1000
0000
0010
,  // measure 29
0000
0001
0000
1000
,  // measure 30
0000
1000
0000
0001
,  // measure 31
0000
0001
0000
0010
,  // measure 32
0000
0001
0000
0100
,  // measure 33
0000
0010
0000
0100
,  // measure 34
0000
0010
0000
0100
,  // measure 35
0000
0100
0000
0010
,  // measure 36
0000
0010
0000
0100
,  // measure 37
0000
0100
0000
0010
,  // measure 38
0000
0100
0000
0010
,  // measure 39
0000
0100
0000
0100
,  // measure 40
2000
0000
0000
3000
,  // measure 41
0000
0001
0000
1000
,  // measure 42
0000
1000
0000
0001
,  // measure 43
0000
0001
0100
0000
,  // measure 44
0001
0000
0100
0000
,  // measure 45
0100
0000
0100
0000
,  // measure 46
1000
0000
0010
0000
,  // measure 47
0001
0000
0010
0000
,  // measure 48
2000
0000
0000
3000
,  // measure 49
0010
0000
0100
0000
,  // measure 50
1000
0000
0100
0000
,  // measure 51
0001
0000
0001
0000
,  // measure 52
1000
0000
0100
0000
,  // measure 53
0001
1000
0000
0001
,  // measure 54
0000
0001
0000
0100
,  // measure 55
0000
0100
0000
0010
,  // measure 56
0000
0001
0000
1000
,  // measure 57
0000
1000
0000
0010
,  // measure 58
0000
1000
0000
0000
,  // measure 59
1000
0000
0100
0000
,  // measure 60
0001
0000
0100
0000
,  // measure 61
0100
0000
1000
0000
,  // measure 62
0010
0000
0010
0000
,  // measure 63
0010
0000
0010
0000
,  // measure 64
0001
0000
0001
0000
,  // measure 65
0010
1000
0000
0010
,  // measure 66
0000
0010
0000
0001
,  // measure 67
0000
0001
0100
0000
,  // measure 68
0001
0000
0100
0000
,  // measure 69
0001
0000
0010
0000
,  // measure 70
0100
0000
0100
0000
,  // measure 71
1000
0000
0100
0000
,  // measure 72
0001
0000
0100
0000
,  // measure 73
0001
1000
0000
0100
,  // measure 74
0000
0001
0000
0010
,  // measure 75
0000
0001
0000
1000
,  // measure 76
0000
1000
0000
0001
,  // measure 77
0000
0001
0000
0010
,  // measure 78
0000
0001
0000
1000
,  // measure 79
0000
0001
0000
1000
,  // measure 80
0000
0001
0000
1000
,  // measure 81
0000
0001
0000
1000
,  // measure 82
0000
0001
0000
1000
,  // measure 83
0000
0001
0000
1000
,  // measure 84
0000
0100
0000
0010
,  // measure 85
0000
1000
0000
0100
,  // measure 86
0000
0010
0000
0100
,  // measure 87
0000
0010
0000
0001
,  // measure 88
0000
0100
0000
0100
,  // measure 89
0000
0001
0000
0010
,  // measure 90
2000
0000
0000
3000
,  // measure 91
0001
0000
0001
0000
,  // measure 92
1000
0000
0100
0000
,  // measure 93
0001
1000
0000
0010
,  // measure 94
0000
1000
0000
0001
,  // measure 95
0000
0001
0000
0010
,  // measure 96
0000
0001
0000
0100
,  // measure 97
0000
1000
0000
0010
,  // measure 98
2000
0000
0000
3000
,  // measure 99
0001
0000
0010
0000
,  // measure 100
0001
1000
0000
0001
,  // measure 101
0000
0001
0000
0010
,  // measure 102
0000
1000
0000
0010
,  // measure 103
0000
0100
0001
0000
,  // measure 104
1000
0000
0100
0000
,  // measure 105
1000
0000
0010
0000
,  // measure 106
0010
0000
1000
0000
,  // measure 107
0002
0000
0000
0000
,  // measure 108
0000
0000
0003
0000
;
