#VERSION:0.83;
#TITLE:BLIK;
#SUBTITLE:;
#ARTIST:Dancing Monkeys Project;
#TITLETRANSLIT:;
#SUBTITLETRANSLIT:;
#ARTISTTRANSLIT:;
#GENRE:;
#ORIGIN:;
#CREDIT:Gorilla v1.1.3 (Dancing Monkeys v1.06);
#BANNER:maxresdefault.png;
#BACKGROUND:49c614f968b2ff68e2343a4f19c78ba5.1000x1000x1.png;
#PREVIEWVID:;
#JACKET:;
#CDIMAGE:;
#DISCIMAGE:;
#LYRICSPATH:;
#CDTITLE:;
#MUSIC:onlymp3.to - ScarLip Blick Official Audio -1Z1BWdogryE-192k-1707981415.mp3;
#OFFSET:-0.354208;
#SAMPLESTART:44.298542;
#SAMPLELENGTH:12.000000;
#SELECTABLE:YES;
#BPMS:0.000=141.998;
#STOPS:;
#DELAYS:;
#WARPS:;
#TIMESIGNATURES:0.000=4=4;
#TICKCOUNTS:0.000=4;
#COMBOS:0.000=1;
#SPEEDS:0.000=1.000=0.000=0;
#SCROLLS:0.000=1.000;
#FAKES:;
#LABELS:0.000=Song Start;
#BGCHANGES:;
#KEYSOUNDS:;
#ATTACKS:
;

//---------------dance-single - Basic----------------
#NOTEDATA:;
#CHARTNAME:Basic;
#STEPSTYPE:dance-single;
#DESCRIPTION:Basic;
#CHARTSTYLE:;
#DIFFICULTY:Easy;
#METER:5;
#RADARVALUES:0.291086,0.247436,0.000000,0.000000,0.000000,277.000000,277.000000,0.000000,0.000000,0.000000,0.000000,0.000000,0.000000,0.000000,0.291086,0.247436,0.000000,0.000000,0.000000,277.000000,277.000000,0.000000,0.000000,0.000000,0.000000,0.000000,0.000000,0.000000;
#CREDIT:Basic;
#NOTES:
// measure 0
0000
0000
0000
0000
,  // measure 1
1000
0000
0000
0000
,  // measure 2
0001
0000
0000
0000
,  // measure 3
1000
0000
0000
0000
,  // measure 4
0000
0001
0000
0000
,  // measure 5
1000
0000
0001
0000
,  // measure 6
0000
1000
0000
0000
,  // measure 7
0010
0000
0001
0000
,  // measure 8
1000
1000
0001
1000
,  // measure 9
0001
0010
1000
0100
,  // measure 10
0001
0100
1000
0010
,  // measure 11
1000
0100
0001
1000
,  // measure 12
0001
0100
1000
0001
,  // measure 13
1000
0010
0001
0100
,  // measure 14
1000
0100
0001
1000
,  // measure 15
0001
0100
1000
0001
,  // measure 16
1000
0100
0001
1000
,  // measure 17
0010
0100
0001
1000
,  // measure 18
0001
0100
1000
0010
,  // measure 19
1000
0100
0001
1000
,  // measure 20
0100
0010
0001
0010
,  // measure 21
1000
0100
0001
1000
,  // measure 22
0100
0010
1000
0001
,  // measure 23
0100
0001
0100
1000
,  // measure 24
0001
0100
1000
0010
,  // measure 25
1000
0010
0001
1000
,  // measure 26
1000
0010
0001
1000
,  // measure 27
0010
0100
1000
0001
,  // measure 28
0001
0010
0100
0001
,  // measure 29
1000
0100
0001
1000
,  // measure 30
0001
1000
0100
0001
,  // measure 31
0010
1000
0100
0001
,  // measure 32
0010
0001
0100
0010
,  // measure 33
1000
0100
0001
1000
,  // measure 34
0010
0010
1000
0010
,  // measure 35
1000
0100
0001
1000
,  // measure 36
1000
0010
0001
1000
,  // measure 37
1000
1000
0001
0100
,  // measure 38
0001
1000
0100
0010
,  // measure 39
1000
0001
0010
0100
,  // measure 40
1000
0001
0010
0100
,  // measure 41
0001
1000
0100
0010
,  // measure 42
1000
0001
1000
0010
,  // measure 43
0001
0010
0100
0001
,  // measure 44
0010
1000
0100
0001
,  // measure 45
1000
0001
0010
0100
,  // measure 46
0001
1000
0010
0100
,  // measure 47
0010
0100
1000
0001
,  // measure 48
0010
0100
0001
0100
,  // measure 49
1000
0010
1000
0010
,  // measure 50
0001
0100
1000
0010
,  // measure 51
1000
0001
1000
0010
,  // measure 52
0100
1000
0001
0010
,  // measure 53
0001
1000
0100
0010
,  // measure 54
1000
0100
0010
0001
,  // measure 55
0100
1000
0001
0010
,  // measure 56
0001
1000
0001
0100
,  // measure 57
0001
0010
1000
0001
,  // measure 58
1000
0100
0001
1000
,  // measure 59
0010
0100
1000
0010
,  // measure 60
1000
0010
1000
0100
,  // measure 61
0001
0010
1000
0100
,  // measure 62
0001
0010
0100
1000
,  // measure 63
0001
0100
0010
0100
,  // measure 64
0001
1000
0010
0010
,  // measure 65
1000
1000
0001
1000
,  // measure 66
0001
0010
1000
0001
,  // measure 67
1000
0010
0001
1000
,  // measure 68
0001
0100
1000
0001
,  // measure 69
1000
0100
0001
1000
,  // measure 70
0001
0010
1000
0001
,  // measure 71
1000
0100
0001
0100
,  // measure 72
0001
0010
1000
0001
,  // measure 73
0010
0100
0001
1000
,  // measure 74
0001
1000
0001
1000
;

//---------------dance-single - Basic----------------
#NOTEDATA:;
#CHARTNAME:;
#STEPSTYPE:dance-single;
#DESCRIPTION:Basic;
#CHARTSTYLE:;
#DIFFICULTY:Beginner;
#METER:5;
#RADARVALUES:0.150272,0.137465,0.000000,0.000000,0.000000,143.000000,143.000000,0.000000,0.000000,0.000000,0.000000,0.000000,0.000000,0.000000,0.150272,0.137465,0.000000,0.000000,0.000000,143.000000,143.000000,0.000000,0.000000,0.000000,0.000000,0.000000,0.000000,0.000000;
#CREDIT:;
#NOTES:
0000
0000
0000
0000
,
1000
0000
0000
0000
,
0001
0000
0000
0000
,
1000
0000
0000
0000
,
0000
0001
0000
0000
,
1000
0000
0001
0000
,
0000
1000
0000
0000
,
0010
0000
0001
0000
,
1000
0000
0001
0000
,
0001
0000
1000
0000
,
0001
0000
1000
0000
,
1000
0000
0001
0000
,
0001
0000
1000
0000
,
1000
0000
0001
0000
,
1000
0000
0000
1000
,
0000
0100
0000
0001
,
0000
0100
0000
1000
,
0000
0100
0000
1000
,
0000
0100
0000
0010
,
0000
0100
0000
1000
,
0000
0010
0000
0010
,
0000
0100
0000
1000
,
0000
0010
0000
0001
,
0000
0001
0000
1000
,
0000
0100
0000
0010
,
0000
0100
0000
1000
,
0000
0010
0000
1000
,
0000
0100
0000
0001
,
0000
0010
0000
0001
,
0000
0100
0000
1000
,
0000
1000
0000
0001
,
0000
1000
0000
0010
,
0000
0001
0000
0010
,
0000
0100
0000
1000
,
0000
0100
0000
0010
,
0000
0100
0000
1000
,
0000
0010
0000
1000
,
0000
1000
0000
0100
,
0000
1000
0000
0010
,
0000
0001
0000
0100
,
0000
0001
0000
0100
,
0000
1000
0000
0010
,
0000
0001
0000
0100
,
0000
0010
0000
0001
,
0000
1000
0000
0010
,
0000
0001
0000
0100
,
0000
1000
0000
0010
,
0000
0100
0000
0001
,
0000
1000
0000
0100
,
0000
0010
0000
0010
,
0000
0100
0000
0010
,
0000
0001
0000
0010
,
0000
1000
0000
0010
,
0000
1000
0000
0010
,
0000
0100
0000
0001
,
0000
1000
0000
0010
,
0000
1000
0000
0100
,
0000
0010
0000
0001
,
0000
0100
0000
1000
,
0000
0100
0000
0010
,
0000
0010
0000
0100
,
0000
0010
0000
0100
,
0000
0010
0000
1000
,
0000
0100
0000
0100
,
0000
0001
0000
0010
,
0000
1000
0000
1000
,
0000
0010
0000
0001
,
0000
0010
0000
1000
,
0000
0100
0000
0001
,
0000
0100
0000
1000
,
0000
0010
0000
0001
,
0000
0100
0000
0100
,
0000
0010
0000
0001
,
0000
0100
0000
0001
,
0000
0100
0000
1000
;
