#TITLE:New Order - Confusion (1995 Pump Panel Remix) (Blade Soundtrac;
#SUBTITLE:;
#ARTIST:Dancing Monkeys Project;
#TITLETRANSLIT:;
#SUBTITLETRANSLIT:;
#ARTISTTRANSLIT:;
#GENRE:;
#CREDIT:Gorilla v1.1.3 (Dancing Monkeys v1.06);
#BANNER:71oxudBahSL._AC_UF1000,1000_QL80_.png;
#BACKGROUND:692baf234d960de87f46b0b89255ca46e986e5ef12eaca1a6640f249042ef019.png;
#LYRICSPATH:;
#CDTITLE:;
#MUSIC:New Order - Confusion (1995 Pump Panel Remix) (Blade Soundtrac.mp3;
#OFFSET:-0.785306;
#SAMPLESTART:44.832924;
#SAMPLELENGTH:12.000000;
#SELECTABLE:YES;
#BPMS:0.000000=136.000000
;
#STOPS:-0.020833=1.000000
;
#BGCHANGES:;
#KEYSOUNDS:;
#ATTACKS:;

//---------------dance-single - Basic----------------
#NOTES:
     dance-single:
     Basic:
     Easy:
     5:
     0.127960,0.101668,0.000000,0.000000,0.000000,224.000000,224.000000,0.000000,0.000000,0.000000,0.000000,0.127960,0.101668,0.000000,0.000000,0.000000,224.000000,224.000000,0.000000,0.000000,0.000000,0.000000:
// measure 0
0000
0000
0100
0000
,  // measure 1
0010
1000
0010
0100
,  // measure 2
0001
0100
0001
1000
,  // measure 3
0010
1000
0010
0100
,  // measure 4
1000
0001
0010
1000
,  // measure 5
0010
1000
0001
0100
,  // measure 6
1000
0001
0100
0010
,  // measure 7
0100
0001
0100
0010
,  // measure 8
0001
1000
0010
0100
,  // measure 9
0001
1000
0001
0010
,  // measure 10
0001
1000
0010
0010
,  // measure 11
1000
0001
0100
0010
,  // measure 12
0100
1000
0100
0010
,  // measure 13
1000
0001
1000
0010
,  // measure 14
1000
0001
0100
1000
,  // measure 15
0010
1000
0010
0100
,  // measure 16
1000
0010
0100
0001
,  // measure 17
1000
0100
0010
0100
,  // measure 18
0010
1000
0001
0100
,  // measure 19
0001
1000
0001
0100
,  // measure 20
0010
1000
0010
0100
,  // measure 21
0001
1000
0010
0100
,  // measure 22
0001
1000
1000
0010
,  // measure 23
1000
0010
0100
0010
,  // measure 24
1000
0001
0100
0010
,  // measure 25
0001
1000
0100
0001
,  // measure 26
1000
0001
0100
0010
,  // measure 27
1000
0001
0100
0010
,  // measure 28
1000
0001
0010
0100
,  // measure 29
1000
0001
0010
0100
,  // measure 30
1000
0001
0100
0010
,  // measure 31
0001
1000
0100
0010
,  // measure 32
1000
0001
0010
0100
,  // measure 33
0001
1000
0001
0100
,  // measure 34
1000
0001
0100
0010
,  // measure 35
1000
0001
0010
0100
,  // measure 36
0001
1000
0001
0100
,  // measure 37
1000
0001
0010
0100
,  // measure 38
1000
0001
0010
0100
,  // measure 39
1000
0001
0100
0010
,  // measure 40
1000
0001
0100
0010
,  // measure 41
0001
1000
0010
0100
,  // measure 42
1000
0001
0100
0010
,  // measure 43
0001
1000
0001
0100
,  // measure 44
0001
1000
0100
0010
,  // measure 45
1000
0001
0100
0010
,  // measure 46
0100
1000
0100
0010
,  // measure 47
1000
0001
0010
0100
,  // measure 48
0001
1000
0010
0100
,  // measure 49
0001
1000
0100
0010
,  // measure 50
0001
1000
0001
0100
,  // measure 51
1000
0001
0010
0100
,  // measure 52
1000
0001
0100
0010
,  // measure 53
0001
1000
0010
0100
,  // measure 54
1000
0001
0100
0010
,  // measure 55
1000
0010
0100
0010
,  // measure 56
1000
0001
0100
0000
;
