#TITLE:Black Clover - Ending 8 against the gods;
#SUBTITLE:;
#ARTIST:Dancing Monkeys Project;
#TITLETRANSLIT:;
#SUBTITLETRANSLIT:;
#ARTISTTRANSLIT:;
#GENRE:;
#CREDIT:Gorilla v1.1.3 (Dancing Monkeys v1.06);
#BANNER:;
#BACKGROUND:;
#LYRICSPATH:;
#CDTITLE:;
#MUSIC:Black Clover - Ending 8 against the gods.mp3;
#OFFSET:-0.643243;
#SAMPLESTART:53.987461;
#SAMPLELENGTH:12.000000;
#SELECTABLE:YES;
#BPMS:0.000000=116.975998
;
#STOPS:
;
#BGCHANGES:;
#KEYSOUNDS:;
#ATTACKS:;

//---------------dance-single - Basic----------------
#NOTES:
     dance-single:
     Basic:
     Easy:
     4:
     0.179220,0.191945,0.000000,0.090327,0.000000,125.000000,125.000000,0.000000,9.000000,0.000000,0.000000,0.179220,0.191945,0.000000,0.090327,0.000000,125.000000,125.000000,0.000000,9.000000,0.000000,0.000000:
// measure 0
0000
0000
0000
0200
,  // measure 1
0000
0000
0000
2300
,  // measure 2
0000
0000
3000
0010
,  // measure 3
0000
1000
0000
0020
,  // measure 4
0000
0000
0030
2000
,  // measure 5
0000
0000
0000
3002
,  // measure 6
0000
0000
0003
0100
,  // measure 7
0000
0001
0000
0010
,  // measure 8
1000
1000
0010
0100
,  // measure 9
0001
0001
0010
0100
,  // measure 10
0001
0010
0010
0001
,  // measure 11
0001
0001
0100
0010
,  // measure 12
1000
1000
0100
0010
,  // measure 13
0001
0001
0010
0100
,  // measure 14
0001
0010
0010
0100
,  // measure 15
1000
0010
0010
1000
,  // measure 16
1000
0001
0010
1000
,  // measure 17
1000
0010
0100
1000
,  // measure 18
0001
1000
0010
0010
,  // measure 19
1000
0100
1000
1000
,  // measure 20
0001
0100
0001
0001
,  // measure 21
1000
0001
0100
1000
,  // measure 22
1000
0010
1000
0100
,  // measure 23
0010
0001
0010
2000
,  // measure 24
0000
0000
3000
0002
,  // measure 25
0000
0000
0003
2000
,  // measure 26
0000
0000
3000
0020
,  // measure 27
0000
0000
0030
1000
,  // measure 28
0000
0000
0000
0100
,  // measure 29
0000
0000
0000
0010
,  // measure 30
0010
0100
0100
1000
,  // measure 31
0001
1000
0001
1000
,  // measure 32
0001
0010
0100
1000
,  // measure 33
0001
0100
0010
0001
,  // measure 34
0010
1000
1000
1000
,  // measure 35
1000
0100
0010
0100
,  // measure 36
1000
0010
0100
1000
,  // measure 37
1000
0100
0010
0100
,  // measure 38
1000
1000
0100
0010
,  // measure 39
0000
0000
0000
0001
,  // measure 40
0000
0001
1000
0100
,  // measure 41
0000
0001
1000
0010
,  // measure 42
0000
1000
0001
0000
;

//---------------dance-single - Standard----------------
#NOTES:
     dance-single:
     Standard:
     Medium:
     5:
     0.282451,0.365762,0.070254,0.090327,0.000000,197.000000,190.000000,7.000000,9.000000,0.000000,0.000000,0.282451,0.365762,0.070254,0.090327,0.000000,197.000000,190.000000,7.000000,9.000000,0.000000,0.000000:
0000
0000
0000
0000
0000
0000
0020
0000
,
0000
0000
0000
0000
0000
0000
0031
0000
,
0000
0000
0000
0000
0000
0000
0002
0000
,
0000
0000
0000
0000
0000
0000
0203
0000
,
0000
0000
0000
0000
0000
0000
2300
0000
,
0000
0000
0000
0000
0000
0000
3020
0000
,
0000
0000
1000
0000
0000
0000
0031
0000
,
0001
0100
0100
0000
0010
0000
1000
0000
,
0001
0010
0010
0000
0100
0000
1000
0000
,
0001
0100
0100
0000
0010
0000
1000
0000
,
1000
0001
1000
0001
0010
0000
1000
0010
,
0001
0100
0100
0000
0010
0000
1000
0000
,
1000
0010
0010
0000
0100
0000
0001
0000
,
0001
0100
0100
0000
0010
0000
1000
0000
,
0001
0010
0001
0100
0010
0100
0001
0000
,
1000
0001
0100
0000
0011
0000
0001
0010
,
0001
1000
0100
0000
1001
0000
1000
0000
,
1000
0001
0100
0000
0011
0000
0001
0010
,
0001
0000
0100
1000
0100
0010
0001
0100
,
1000
0000
0100
0100
1000
1000
1000
0010
,
0001
0000
0010
0010
0001
0001
0001
0100
,
1000
0000
0100
0100
1000
1000
1000
0010
,
1000
0000
0100
0100
1000
1000
0002
0000
,
0000
0000
0000
0000
0000
0000
1000
0000
,
0000
0000
1000
0000
0000
0000
0023
0000
,
0000
0000
0000
0000
0000
0000
1000
0000
,
0000
0000
1000
0000
0030
0000
0002
0000
,
0000
0000
0000
0000
0000
0000
1000
0000
,
0000
0000
1000
0000
0003
0000
2000
0000
,
0000
0000
0000
0000
0000
0000
3000
1000
,
1000
0010
0100
0000
0001
0000
0010
0000
,
0001
1000
0100
0010
0001
0010
0001
0000
,
1000
0001
0100
0000
0011
0000
0001
0010
,
1000
0001
0010
0000
0101
0000
0001
0100
,
0001
1000
0010
1000
0010
0100
0001
0100
,
0001
1000
0100
0010
0001
0010
0001
0000
,
1000
0001
0100
0000
0011
0000
0001
0010
,
0001
1000
0100
0010
0001
0010
0001
0000
,
1000
0001
0010
0000
0101
0000
0100
0000
,
0000
0000
0000
0000
0000
0000
1000
0010
,
0000
0001
0000
1000
0100
0010
0001
1000
,
0000
0001
0000
1000
0100
0010
0001
1000
,
0000
0001
0000
1000
0010
0100
0001
1000
,
;

//---------------dance-single - Heavy----------------
#NOTES:
     dance-single:
     Heavy:
     Hard:
     6:
     0.313994,0.365762,0.070254,0.070254,0.000000,219.000000,212.000000,7.000000,7.000000,0.000000,0.000000,0.313994,0.365762,0.070254,0.070254,0.000000,219.000000,212.000000,7.000000,7.000000,0.000000,0.000000:
0000
0000
0000
0000
0000
0000
0002
0000
,
0000
0000
0000
0000
0000
0000
0003
0000
,
0000
0000
0000
0000
0000
0000
0002
0000
,
0000
0000
0000
0000
0000
0000
0023
0000
,
0000
0000
0000
0000
0000
0000
2030
0000
,
0000
0000
0000
0000
0000
0000
3002
0000
,
0000
0000
1000
0000
0000
0000
0013
0000
,
1000
0010
0010
0100
0001
0000
0010
0001
,
0001
0100
0100
0010
1000
0000
0100
1000
,
1000
0100
0100
0010
0001
0000
0100
0001
,
0001
0100
0001
0100
0000
0000
0001
0100
,
1000
0010
0010
0100
0001
0000
0010
0001
,
0001
0100
0100
0010
1000
0000
0100
1000
,
1000
0010
0010
0100
0001
0000
0010
0001
,
0000
1000
0001
0010
0100
0010
0100
0000
,
0001
1000
0010
0000
1001
0000
0001
0100
,
0001
0100
0010
0000
0011
0000
0100
0000
,
0001
1000
0010
0000
1001
0000
0001
0100
,
0001
0100
0001
0100
0001
0100
0010
1000
,
0001
0000
1000
1000
0100
0100
0100
1000
,
1000
0000
0001
0001
0100
0100
0100
0001
,
1000
0000
0001
0001
0100
0100
0100
0001
,
0001
0000
1000
1000
0010
0010
0002
0000
,
0000
0000
0000
0000
0000
0000
0001
0000
,
0000
0000
1000
0000
0000
0000
2003
0000
,
0000
0000
0000
0000
0000
0000
0001
0000
,
0000
0000
1000
0000
3000
0000
0200
0000
,
0000
0000
0000
0000
0000
0000
0001
0000
,
0000
0000
1000
0000
0300
0000
2000
0000
,
0000
0000
0001
0000
0000
0000
3000
0001
,
0001
0100
0010
0100
0001
0001
1000
0000
,
1000
0001
1000
0100
0010
0100
1000
0010
,
0001
1000
0010
0000
1001
0000
0001
0100
,
0001
1000
0100
0000
1001
0000
0001
0010
,
1000
0100
0010
0100
0010
0100
1000
0001
,
1000
0001
1000
0100
0010
0100
1000
0010
,
0001
1000
0010
0000
1001
0000
0001
0100
,
1000
0001
1000
0100
0010
0100
1000
0010
,
0001
0100
0010
0000
0011
0000
0010
0001
,
0000
0000
0000
0000
0000
0001
0001
0010
,
1000
0001
0100
0001
0010
0100
1000
0010
,
1000
0001
0100
0001
0010
0100
1000
0010
,
0001
1000
0010
1000
0100
0010
0001
0100
,
;
