#VERSION:0.83;
#TITLE:Black Blood;
#SUBTITLE:;
#ARTIST:Dancing Monkeys Project;
#TITLETRANSLIT:;
#SUBTITLETRANSLIT:;
#ARTISTTRANSLIT:;
#GENRE:;
#ORIGIN:;
#CREDIT:Gorilla v1.1.3 (Dancing Monkeys v1.06);
#BANNER:hq720.png;
#BACKGROUND:sddefault.png;
#PREVIEWVID:;
#JACKET:;
#CDIMAGE:;
#DISCIMAGE:;
#LYRICSPATH:;
#CDTITLE:;
#MUSIC:Black Blood.mp3;
#OFFSET:-2.120907;
#SAMPLESTART:2.120907;
#SAMPLELENGTH:12.000000;
#SELECTABLE:YES;
#BPMS:0.000=118.799;
#STOPS:;
#DELAYS:;
#WARPS:;
#TIMESIGNATURES:0.000=4=4;
#TICKCOUNTS:0.000=4;
#COMBOS:0.000=1;
#SPEEDS:0.000=1.000=0.000=0;
#SCROLLS:0.000=1.000;
#FAKES:;
#LABELS:0.000=Song Start;
#BGCHANGES:;
#KEYSOUNDS:;
#ATTACKS:
;

//---------------dance-single - Basic----------------
#NOTEDATA:;
#CHARTNAME:Basic;
#STEPSTYPE:dance-single;
#DESCRIPTION:Basic;
#CHARTSTYLE:;
#DIFFICULTY:Easy;
#METER:3;
#RADARVALUES:0.234318,0.213842,0.000000,0.015329,0.000000,107.000000,107.000000,0.000000,1.000000,0.000000,0.000000,0.000000,0.000000,0.000000,0.234318,0.213842,0.000000,0.015329,0.000000,107.000000,107.000000,0.000000,1.000000,0.000000,0.000000,0.000000,0.000000,0.000000;
#CREDIT:Basic;
#NOTES:
0010
0000
1000
0000
,
0010
0000
0100
0000
,
0001
0000
2000
0000
,
0000
0000
0000
0000
,
3000
0000
0001
0000
,
0001
0000
0100
0000
,
1000
0000
0010
0000
,
0100
0000
0010
0010
,
0001
0001
0010
0010
,
1000
1000
0100
0100
,
1000
0100
0010
1000
,
0001
0100
0100
0001
,
0010
0001
0100
0010
,
0010
1000
0010
0010
,
0010
0001
0100
0010
,
0001
0001
0100
1000
,
1000
0001
0100
0010
,
0010
1000
0010
0010
,
0010
0001
0100
0100
,
0010
0001
0010
0010
,
0010
0001
0100
0001
,
1000
1000
0010
0010
,
0001
0001
0100
0100
,
1000
1000
0001
0001
,
1000
1000
0010
0010
,
1000
1000
0010
0010
,
1000
1000
0100
0010
,
0001
0010
1000
0100
,
0010
0001
0100
0010
,
0001
1000
0001
0010
,
1000
0100
0001
0001
,
0001
0000
0000
0000
;

//---------------dance-single - Basic----------------
#NOTEDATA:;
#CHARTNAME:;
#STEPSTYPE:dance-single;
#DESCRIPTION:Basic;
#CHARTSTYLE:;
#DIFFICULTY:Beginner;
#METER:3;
#RADARVALUES:0.131393,0.118801,0.000000,0.000000,0.000000,60.000000,60.000000,0.000000,0.000000,0.000000,0.000000,0.000000,0.000000,0.000000,0.131393,0.118801,0.000000,0.000000,0.000000,60.000000,60.000000,0.000000,0.000000,0.000000,0.000000,0.000000,0.000000,0.000000;
#CREDIT:;
#NOTES:
// measure 0
0010
0000
1000
0000
,  // measure 1
0010
0000
0100
0000
,  // measure 2
0001
0000
1000
0000
,  // measure 3
0000
0000
0000
0000
,  // measure 4
0000
0000
0001
0000
,  // measure 5
0001
0000
0100
0000
,  // measure 6
1000
0000
0010
0000
,  // measure 7
0100
0000
0010
0000
,  // measure 8
0001
0000
0010
0000
,  // measure 9
1000
0000
0100
0000
,  // measure 10
1000
0000
0010
0000
,  // measure 11
0001
0000
0100
0000
,  // measure 12
0010
0000
0100
0000
,  // measure 13
0010
0000
0010
0000
,  // measure 14
0010
0000
0100
0000
,  // measure 15
0001
0000
0100
0000
,  // measure 16
1000
0000
0100
0000
,  // measure 17
0010
0000
0010
0000
,  // measure 18
0010
0000
0100
0000
,  // measure 19
0010
0000
0010
0000
,  // measure 20
0010
0000
0100
0000
,  // measure 21
1000
0000
0010
0000
,  // measure 22
0001
0000
0100
0000
,  // measure 23
1000
0000
0001
0000
,  // measure 24
1000
0000
0010
0000
,  // measure 25
1000
0000
0010
0000
,  // measure 26
1000
0000
0100
0000
,  // measure 27
0001
0000
1000
0000
,  // measure 28
0010
0000
0100
0000
,  // measure 29
0001
0000
0001
0000
,  // measure 30
1000
0000
0001
0000
,  // measure 31
0001
0000
0000
0000
;
