#VERSION:0.83;
#TITLE:Black Blood 2;
#SUBTITLE:BLACK.BLOOD2;
#ARTIST:Savethewrld!;
#TITLETRANSLIT:;
#SUBTITLETRANSLIT:;
#ARTISTTRANSLIT:;
#GENRE:;
#ORIGIN:;
#CREDIT:;
#BANNER:hq720.png;
#BACKGROUND:images.png;
#PREVIEWVID:;
#JACKET:;
#CDIMAGE:;
#DISCIMAGE:;
#LYRICSPATH:;
#CDTITLE:;
#MUSIC:Black Blood 2!.mp3;
#OFFSET:0.000000;
#SAMPLESTART:100.000000;
#SAMPLELENGTH:12.000000;
#SELECTABLE:YES;
#BPMS:0.000=140.200;
#STOPS:;
#DELAYS:;
#WARPS:;
#TIMESIGNATURES:0.000=4=4;
#TICKCOUNTS:0.000=4;
#COMBOS:0.000=1;
#SPEEDS:0.000=1.000=0.000=0;
#SCROLLS:0.000=1.000;
#FAKES:;
#LABELS:0.000=Song Start;
#BGCHANGES:;
#KEYSOUNDS:;
#ATTACKS:
;

//---------------dance-single - ----------------
#NOTEDATA:;
#CHARTNAME:;
#STEPSTYPE:dance-single;
#DESCRIPTION:;
#CHARTSTYLE:;
#DIFFICULTY:Easy;
#METER:1;
#RADARVALUES:0.200148,0.233692,0.000000,0.040492,0.000000,173.000000,173.000000,0.000000,5.000000,0.000000,0.000000,0.000000,0.000000,0.000000,0.200148,0.233692,0.000000,0.040492,0.000000,173.000000,173.000000,0.000000,5.000000,0.000000,0.000000,0.000000,0.000000,0.000000;
#CREDIT:;
#NOTES:
// measure 0
1000
0000
0001
0000
,  // measure 1
0010
0000
0100
0000
,  // measure 2
1000
0000
0100
0000
,  // measure 3
1000
1000
1000
0000
,  // measure 4
0010
0000
0100
0000
,  // measure 5
1000
0000
0010
0000
,  // measure 6
0100
0000
0001
0000
,  // measure 7
2000
0000
3000
0000
,  // measure 8
0010
0010
0010
0000
,  // measure 9
1000
1000
1000
0000
,  // measure 10
0100
0100
0100
0000
,  // measure 11
0001
0001
0001
0000
,  // measure 12
0100
0100
0100
0000
,  // measure 13
1000
1000
1000
0000
,  // measure 14
0010
0010
0010
0000
,  // measure 15
0001
0001
0001
0000
,  // measure 16
0100
0100
0100
0000
,  // measure 17
1000
1000
1000
0000
,  // measure 18
0010
0010
0010
0000
,  // measure 19
1000
1000
1000
0000
,  // measure 20
0001
0001
0001
0000
,  // measure 21
0100
0100
0100
0000
,  // measure 22
0010
0010
0010
0000
,  // measure 23
0100
0100
0100
0000
,  // measure 24
1000
1000
1000
0100
,  // measure 25
0100
0100
0010
0010
,  // measure 26
0010
0001
0001
0001
,  // measure 27
1000
1000
1000
0100
,  // measure 28
0100
0100
0010
0010
,  // measure 29
0010
1000
1000
1000
,  // measure 30
0001
0001
0001
0100
,  // measure 31
0100
0100
1000
1000
,  // measure 32
2000
0000
0000
0000
,  // measure 33
0000
0000
3000
0000
,  // measure 34
0020
0000
0000
0000
,  // measure 35
0000
0000
0030
0000
,  // measure 36
2000
0000
0000
0000
,  // measure 37
0000
0000
3000
0000
,  // measure 38
0200
0000
0000
0000
,  // measure 39
0000
0000
0300
0000
,  // measure 40
1000
1000
1000
0000
,  // measure 41
0010
0010
0010
0000
,  // measure 42
0100
0100
0100
0000
,  // measure 43
0001
0001
0001
0000
,  // measure 44
0010
0010
0010
0000
,  // measure 45
1000
1000
1000
0000
,  // measure 46
0100
0100
0100
0000
,  // measure 47
0010
0010
0010
0000
,  // measure 48
1000
1000
1000
0000
,  // measure 49
0100
0100
0100
0000
,  // measure 50
0001
0001
0001
0000
,  // measure 51
1000
1000
1000
0000
,  // measure 52
0010
0010
0010
0000
,  // measure 53
0100
0100
0100
0000
,  // measure 54
1000
1000
1000
0000
,  // measure 55
0100
0100
0100
0000
,  // measure 56
0001
0001
0001
0000
,  // measure 57
1000
1000
1000
0000
,  // measure 58
0100
0100
0100
0000
,  // measure 59
0010
0010
0010
0000
,  // measure 60
1000
1000
1000
0000
,  // measure 61
0100
0100
0100
0000
,  // measure 62
0001
0001
0001
0000
,  // measure 63
1000
1000
1000
0000
,  // measure 64
0000
0001
0000
0000
0000
0000
0000
0000
;
