#TITLE:Lazy Town Bing Bang Song Music Video;
#SUBTITLE:;
#ARTIST:Dancing Monkeys Project;
#TITLETRANSLIT:;
#SUBTITLETRANSLIT:;
#ARTISTTRANSLIT:;
#GENRE:;
#CREDIT:Gorilla v1.1.3 (Dancing Monkeys v1.06);
#BANNER:p01lcl2y.png;
#BACKGROUND:3744920.png;
#LYRICSPATH:;
#CDTITLE:;
#MUSIC:Lazy Town Bing Bang Song Music Video.mp3;
#OFFSET:-1.749410;
#SAMPLESTART:1.749410;
#SAMPLELENGTH:12.000000;
#SELECTABLE:YES;
#BPMS:0.000000=139.703995
;
#STOPS:
;
#BGCHANGES:;
#KEYSOUNDS:;
#ATTACKS:;

//---------------dance-single - Basic----------------
#NOTES:
     dance-single:
     Basic:
     Easy:
     6:
     0.302067,0.235205,0.000000,0.000000,0.000000,89.000000,89.000000,0.000000,0.000000,0.000000,0.000000,0.302067,0.235205,0.000000,0.000000,0.000000,89.000000,89.000000,0.000000,0.000000,0.000000,0.000000:
1000
0001
0001
0100
,
0100
0100
0010
1000
,
0001
1000
0010
0001
,
1000
0001
0001
0100
,
1000
0001
0001
0100
,
0100
0100
0010
1000
,
0001
0001
0100
0010
,
0001
0010
0001
0010
,
1000
0001
0001
0100
,
1000
0001
0001
0100
,
0001
1000
1000
0100
,
1000
0001
0010
0001
,
0001
1000
0010
0100
,
1000
0010
0100
0010
,
1000
0010
1000
1000
,
1000
0010
1000
0100
,
0001
0100
0010
0001
,
1000
0001
0001
0100
,
1000
0010
1000
1000
,
0100
0001
0001
0001
,
0001
1000
0010
0001
,
1000
1000
0100
0100
,
0010
0000
0000
0000
;

//---------------dance-single - Basic----------------
#NOTES:
     dance-single:
     :
     Beginner:
     6:
     0.152730,0.130669,0.000000,0.000000,0.000000,45.000000,45.000000,0.000000,0.000000,0.000000,0.000000,0.152730,0.130669,0.000000,0.000000,0.000000,45.000000,45.000000,0.000000,0.000000,0.000000,0.000000:
// measure 0
1000
0000
0001
0000
,  // measure 1
0100
0000
0010
0000
,  // measure 2
0001
0000
0010
0000
,  // measure 3
1000
0000
0001
0000
,  // measure 4
1000
0000
0001
0000
,  // measure 5
0100
0000
0010
0000
,  // measure 6
0001
0000
0100
0000
,  // measure 7
0001
0000
0001
0000
,  // measure 8
1000
0000
0001
0000
,  // measure 9
1000
0000
0001
0000
,  // measure 10
0001
0000
1000
0000
,  // measure 11
1000
0000
0010
0000
,  // measure 12
0001
0000
0010
0000
,  // measure 13
1000
0000
0100
0000
,  // measure 14
1000
0000
1000
0000
,  // measure 15
1000
0000
1000
0000
,  // measure 16
0001
0000
0010
0000
,  // measure 17
1000
0000
0001
0000
,  // measure 18
1000
0000
1000
0000
,  // measure 19
0100
0000
0001
0000
,  // measure 20
0001
0000
0010
0000
,  // measure 21
1000
0000
0100
0000
,  // measure 22
0010
0000
0000
0000
;
