#VERSION:0.83;
#TITLE:0Big Night - Big Time Rush Lyrics (1);
#SUBTITLE:;
#ARTIST:Dancing Monkeys Project;
#TITLETRANSLIT:;
#SUBTITLETRANSLIT:;
#ARTISTTRANSLIT:;
#GENRE:;
#ORIGIN:;
#CREDIT:Gorilla v1.1.3 (Dancing Monkeys v1.06);
#BANNER:;
#BACKGROUND:;
#PREVIEWVID:;
#JACKET:;
#CDIMAGE:;
#DISCIMAGE:;
#LYRICSPATH:;
#CDTITLE:;
#MUSIC:0Big Night - Big Time Rush Lyrics (1).mp3;
#OFFSET:-2.093875;
#SAMPLESTART:46.664375;
#SAMPLELENGTH:12.000000;
#SELECTABLE:YES;
#BPMS:0.000=140.003;
#STOPS:;
#DELAYS:;
#WARPS:;
#TIMESIGNATURES:0.000=4=4;
#TICKCOUNTS:0.000=4;
#COMBOS:0.000=1;
#SPEEDS:0.000=1.000=0.000=0;
#SCROLLS:0.000=1.000;
#FAKES:;
#LABELS:0.000=Song Start;
#BGCHANGES:;
#KEYSOUNDS:;
#ATTACKS:
;

//---------------dance-single - Basic----------------
#NOTEDATA:;
#CHARTNAME:Basic;
#STEPSTYPE:dance-single;
#DESCRIPTION:Basic;
#CHARTSTYLE:;
#DIFFICULTY:Easy;
#METER:4;
#RADARVALUES:0.187239,0.180857,0.000000,0.020479,0.000000,256.000000,256.000000,0.000000,4.000000,0.000000,0.000000,0.000000,0.000000,0.000000,0.187239,0.180857,0.000000,0.020479,0.000000,256.000000,256.000000,0.000000,4.000000,0.000000,0.000000,0.000000,0.000000,0.000000;
#CREDIT:Basic;
#NOTES:
// measure 0
0000
2000
0000
0000
,  // measure 1
0000
0000
0000
0000
,  // measure 2
0000
3000
0000
0000
,  // measure 3
0002
0000
0000
0000
,  // measure 4
0000
0000
0000
0003
,  // measure 5
0010
0010
0100
0100
,  // measure 6
0010
0010
0010
0000
,  // measure 7
1000
1000
0001
0001
,  // measure 8
1000
1000
0100
0100
,  // measure 9
1000
1000
0100
0100
,  // measure 10
1000
1000
0010
0010
,  // measure 11
0001
0001
1000
1000
,  // measure 12
1000
0001
0001
1000
,  // measure 13
1000
0010
0010
0010
,  // measure 14
1000
1000
0010
0010
,  // measure 15
0010
0100
0100
0100
,  // measure 16
0001
0001
0010
0010
,  // measure 17
1000
1000
0100
0100
,  // measure 18
0100
0001
0001
1000
,  // measure 19
1000
0010
0010
0001
,  // measure 20
0001
1000
1000
0000
,  // measure 21
0100
0100
0100
0000
,  // measure 22
0000
0000
0000
0000
,  // measure 23
1000
1000
1000
1000
,  // measure 24
0000
0001
0100
0000
,  // measure 25
0001
1000
0100
0100
,  // measure 26
0000
0001
0100
0000
,  // measure 27
1000
0001
0100
1000
,  // measure 28
1000
0001
0010
0000
,  // measure 29
1000
0010
1000
0000
,  // measure 30
0001
1000
0001
0001
,  // measure 31
0002
0000
0003
1000
,  // measure 32
0001
0001
0100
0010
,  // measure 33
0001
0100
0010
0001
,  // measure 34
0001
1000
0010
0010
,  // measure 35
0010
0001
0001
0100
,  // measure 36
0100
0100
0010
0010
,  // measure 37
0010
1000
1000
1000
,  // measure 38
1000
0001
0100
0100
,  // measure 39
0100
0001
0100
0010
,  // measure 40
0010
0100
0100
0010
,  // measure 41
0010
0100
0010
0010
,  // measure 42
0010
1000
0100
0010
,  // measure 43
0100
1000
0100
0010
,  // measure 44
0100
1000
0010
1000
,  // measure 45
0001
1000
0100
0010
,  // measure 46
0010
0010
0010
0000
,  // measure 47
0001
0000
1000
0000
,  // measure 48
1000
0000
0001
0000
,  // measure 49
0001
0000
1000
0000
,  // measure 50
0001
0000
1000
0000
,  // measure 51
1000
0000
0001
0000
,  // measure 52
0001
0000
1000
0000
,  // measure 53
0001
0000
1000
0000
,  // measure 54
1000
0001
0100
0000
,  // measure 55
0001
0001
0001
0001
,  // measure 56
0000
0001
0100
0000
,  // measure 57
0001
1000
0100
0000
,  // measure 58
1000
0001
0010
0000
,  // measure 59
0200
0000
0000
0000
,  // measure 60
0300
0010
1000
0000
,  // measure 61
1000
0100
1000
0000
,  // measure 62
0010
1000
0100
0010
,  // measure 63
0100
0001
0010
0100
,  // measure 64
1000
0001
0100
0010
,  // measure 65
0100
1000
0010
1000
,  // measure 66
0010
1000
0100
0010
,  // measure 67
0001
1000
0100
0010
,  // measure 68
0100
1000
0010
1000
,  // measure 69
0001
1000
0100
0010
,  // measure 70
0001
1000
0100
0010
,  // measure 71
0001
1000
0010
0100
,  // measure 72
1000
0001
0010
0100
,  // measure 73
1000
0001
0010
0100
,  // measure 74
0001
1000
0100
0010
,  // measure 75
0001
1000
0010
0100
,  // measure 76
0010
1000
0010
1000
,  // measure 77
0001
1000
0100
0001
,  // measure 78
0001
0001
0001
0000
;

//---------------dance-single - Standard----------------
#NOTEDATA:;
#CHARTNAME:Standard;
#STEPSTYPE:dance-single;
#DESCRIPTION:Standard;
#CHARTSTYLE:;
#DIFFICULTY:Medium;
#METER:5;
#RADARVALUES:0.312308,0.383473,0.235511,0.010240,0.000000,427.000000,381.000000,46.000000,2.000000,0.000000,0.000000,0.000000,0.000000,0.000000,0.312308,0.383473,0.235511,0.010240,0.000000,427.000000,381.000000,46.000000,2.000000,0.000000,0.000000,0.000000,0.000000,0.000000;
#CREDIT:Standard;
#NOTES:
1000
0000
0000
0000
0000
0000
0000
0000
,
1000
0000
0000
0000
0000
0000
0000
0000
,
1000
0000
0000
0000
0000
0000
0000
0000
,
0001
0000
0000
0000
0000
0000
0000
0000
,
1000
0000
0000
0000
0000
0000
0000
0000
,
1000
0000
0000
0000
0000
0000
0000
0000
,
1000
0000
0010
0000
0100
0000
0000
0000
,
0001
0000
0100
0000
0010
0000
0000
0000
,
1000
0000
0010
0000
0100
0000
0000
0000
,
1000
0000
0010
0000
0100
0000
0000
0000
,
1000
0000
0100
0000
0010
0000
0000
0000
,
0001
0000
0010
0000
0100
0000
0000
0000
,
0001
0000
0010
0000
0100
0000
0000
0000
,
0001
0000
0010
0000
0100
0000
0000
0000
,
1000
0000
0010
0000
0100
0000
0000
0000
,
1000
0000
0010
0000
0100
0000
0000
0000
,
0001
0000
0010
0000
0100
0000
0000
0000
,
1000
0000
0100
0000
0010
0000
0000
0000
,
1000
0000
0010
0000
0100
0000
0000
0000
,
1000
0000
0100
0000
0010
0000
0000
0000
,
1000
0000
0010
0000
0100
0000
0000
0000
,
1000
0000
0100
0000
0010
0000
0000
0000
,
1000
0000
0100
0000
0010
0000
0000
0000
,
1000
0000
0100
0000
0010
0000
0000
0000
,
1000
0000
0100
0000
0010
0000
0000
0000
,
1000
0000
0100
0000
0010
0000
0000
0000
,
0001
0000
0100
0000
0010
0000
0000
0000
,
0001
0000
0010
0000
0100
0000
0000
0000
,
1000
0000
0100
0000
0010
0000
0000
0000
,
1000
0000
0010
0000
1000
0000
0010
0000
,
1100
0000
1000
0010
0001
0000
0100
0000
,
1010
0000
1000
0100
0001
0000
0010
0000
,
0101
0000
0001
0010
1000
0000
0100
0000
,
1000
0000
0100
0000
0010
0000
0001
0000
,
0101
0000
0001
0000
1000
0010
1000
0000
,
1010
0000
1000
0000
0001
0100
0001
0000
,
0101
0000
1000
0000
0100
0010
0100
0000
,
1100
0000
1000
0010
0001
0000
0100
0000
,
1010
0000
1000
0100
0001
0000
0010
0000
,
1100
0000
1000
0010
0001
0000
0100
0000
,
1010
0000
1000
0100
0001
0000
0010
0000
,
1000
0000
0100
0000
0010
0000
0001
0000
,
1100
0000
1000
0010
0001
0000
0100
0000
,
0101
0000
0001
0000
1000
0010
1000
0000
,
0101
0000
1000
0000
0100
0010
0100
0000
,
1100
0000
1000
0010
0001
0000
0100
0000
,
0000
0000
0000
0000
1000
0000
0000
0000
,
0001
0000
0000
0000
0100
0000
0000
0000
,
1000
0000
0000
0000
0100
0000
0000
0000
,
0001
0000
0000
0000
0100
0000
0000
0000
,
1000
0000
0000
0000
0010
0000
0000
0000
,
1000
0000
0000
0000
0010
0000
0000
0000
,
1000
0000
0000
0000
0010
0000
0000
0000
,
0001
0000
0000
0000
0010
0000
0000
0000
,
1000
0000
0010
0000
0100
0000
0000
0000
,
0001
0000
0010
0000
0100
0000
0000
0000
,
0001
0000
0010
0000
0100
0000
0000
0000
,
1000
0000
0100
0000
0010
0000
0000
0000
,
1000
0000
0010
0000
0100
0000
0000
0000
,
0001
0000
0100
0000
0010
0000
0000
0000
,
1000
0000
0010
0000
1000
0000
0010
0000
,
0001
0000
0100
0000
0001
0000
0100
0000
,
1100
0000
1000
0010
0001
0000
0100
0000
,
0011
0000
0001
0100
1000
0000
0010
0000
,
0011
0000
0001
0100
1000
0000
0010
0000
,
0101
0000
1000
0000
0100
0010
0100
0000
,
1100
0000
1000
0010
0001
0000
0100
0000
,
0101
0000
0001
0000
1000
0010
1000
0000
,
0101
0000
1000
0000
0100
0010
0100
0000
,
1100
0000
1000
0010
0001
0000
0100
0000
,
0101
0000
0001
0010
1000
0000
0100
0000
,
1010
0000
1000
0100
0001
0000
0010
0000
,
0101
0000
0001
0010
1000
0000
0100
0000
,
1100
0000
1000
0010
0001
0000
0100
0000
,
0101
0000
0001
0000
1000
0010
1000
0000
,
1010
0000
1000
0000
0001
0100
0001
0000
,
0101
0000
1000
0000
0100
0010
0100
0000
,
1100
0000
1000
0010
0001
0000
0002
0000
,
0000
0000
0000
0000
0000
0000
0000
0000
,
0000
0000
0000
0000
0000
0000
0000
0000
,
0000
0000
0000
0000
0000
0000
0000
0000
,
0000
0000
0003
0000
0000
0000
0000
0000
,
0000
0000
1000
0000
0000
0000
0000
0000
,
1000
0000
0010
0000
0100
0000
0000
0000
,
0001
0000
0010
0000
0100
0000
0000
0000
,
0001
0000
0100
0000
0010
0000
0000
0000
,
1000
0000
0010
0000
0100
0000
0000
0000
,
0001
0000
0100
0000
0010
0000
0000
0000
,
1000
0000
0100
0000
0010
0000
0002
0000
,
0000
0000
0000
0000
0000
0000
0003
0000
,
0001
0000
0000
0000
0000
0000
0100
0000
,
1100
0000
1000
0010
0001
0000
0100
0000
,
1010
0000
1000
0100
0001
0000
0010
0000
,
0101
0000
0001
0010
1000
0000
0100
0000
,
0101
0000
1000
0000
0100
0010
0100
0000
,
1100
0000
1000
0010
0001
0000
0100
0000
,
0101
0000
0001
0000
1000
0010
1000
0000
,
0101
0000
1000
0000
0100
0010
0100
0000
,
1100
0000
1000
0010
0001
0000
0100
0000
,
1010
0000
1000
0100
0001
0000
0010
0000
,
0101
0000
1000
0000
0100
0010
0100
0000
,
1100
0000
1000
0010
0001
0000
0100
0000
,
0101
0000
1000
0000
0100
0010
0100
0000
,
1100
0000
1000
0010
0001
0000
0100
0000
,
0101
0000
0001
0000
1000
0010
1000
0000
,
0101
0000
1000
0000
0100
0010
0100
0000
,
1100
0000
1000
0010
0001
0000
0100
0000
,
1000
0000
0000
0000
0000
0000
0000
0000
,
;

//---------------dance-single - Heavy----------------
#NOTEDATA:;
#CHARTNAME:Heavy;
#STEPSTYPE:dance-single;
#DESCRIPTION:Heavy;
#CHARTSTYLE:;
#DIFFICULTY:Hard;
#METER:6;
#RADARVALUES:0.367163,0.438255,0.235511,0.010240,0.000000,502.000000,456.000000,46.000000,2.000000,0.000000,0.000000,0.000000,0.000000,0.000000,0.367163,0.438255,0.235511,0.010240,0.000000,502.000000,456.000000,46.000000,2.000000,0.000000,0.000000,0.000000,0.000000,0.000000;
#CREDIT:Heavy;
#NOTES:
1000
0000
0000
0000
0000
0000
0000
0000
,
1000
0000
0000
0000
0000
0000
0000
0000
,
1000
0000
0000
0000
0000
0000
0000
0000
,
0001
0000
0000
0000
0000
0000
0000
0000
,
0001
0000
0000
0000
0000
0000
0000
0000
,
0001
0000
0000
0000
0000
0000
0000
0000
,
1000
0000
0010
0000
0100
0000
0001
0000
,
1000
0000
0010
0000
0100
0000
0001
0000
,
1000
0000
0100
0000
0010
0000
0001
0000
,
1000
0000
0010
0000
0100
0000
0001
0000
,
0001
0000
0100
0000
0010
0000
1000
0000
,
1000
0000
0010
0000
0100
0000
0001
0000
,
1000
0000
0010
0000
0100
0000
0001
0000
,
1000
0000
0010
0000
0100
0000
0001
0000
,
0001
0000
0100
0000
0010
0000
1000
0000
,
0001
0000
0100
0000
0010
0000
1000
0000
,
0001
0000
0010
0000
0100
0000
1000
0000
,
0001
0000
0100
0000
0010
0000
1000
0000
,
1000
0000
0100
0000
0010
0000
0001
0000
,
1000
0000
0010
0000
0100
0000
0001
0000
,
1000
0000
0100
0000
0010
0000
0001
0000
,
1000
0000
0100
0000
0010
0000
0001
0000
,
1000
0000
0100
0000
0010
0000
0001
0000
,
1000
0000
0100
0000
0010
0000
0001
0000
,
1000
0000
0010
0000
0100
0000
0001
0000
,
1000
0000
0100
0000
0010
0000
0001
0000
,
0001
0000
0010
0000
0100
0000
1000
0000
,
1000
0000
0100
0000
0010
0000
0001
0000
,
1000
0000
0100
0000
0010
0000
0001
0000
,
1000
0000
0100
0000
1000
0000
0100
0000
,
0110
0000
0001
1000
0100
0001
0100
0000
,
0110
0000
0001
1000
0010
0001
0010
0000
,
0110
0000
0001
1000
0100
0001
0100
0000
,
0001
0000
0010
0100
0010
0000
0100
0000
,
1001
0000
1000
0000
0010
1000
0001
0000
,
1001
0000
0001
0000
0100
0001
1000
0000
,
1100
0000
0001
1000
0001
1000
0010
0000
,
0110
0000
0001
1000
0100
0001
0100
0000
,
0110
0000
1000
0001
0100
1000
0100
0000
,
0110
0000
0001
1000
0010
0001
0010
0000
,
0110
0000
0001
1000
0100
0001
0100
0000
,
0001
0000
0010
0100
0010
0000
0100
0000
,
0110
0000
0001
1000
0100
0001
0100
0000
,
1001
0000
1000
0000
0010
1000
0001
0000
,
1100
0000
0001
1000
0001
1000
0010
0000
,
0110
0000
0001
1000
0100
0001
0100
0000
,
0000
0000
0000
0000
1000
0000
0001
0000
,
0001
0000
0000
0000
0100
0000
0000
0000
,
1000
0000
0000
0000
0010
0000
0000
0000
,
0001
0000
0000
0000
0100
0000
0000
0000
,
1000
0000
0000
0000
0100
0000
0000
0000
,
1000
0000
0000
0000
0100
0000
0000
0000
,
1000
0000
0000
0000
0100
0000
0000
0000
,
0001
0000
0000
0000
0100
0000
0000
0000
,
1000
0000
0010
0000
0100
0000
0001
0000
,
0001
0000
0010
0000
0100
0000
1000
0000
,
0001
0000
0010
0000
0100
0000
1000
0000
,
1000
0000
0010
0000
0100
0000
0001
0000
,
0001
0000
0100
0000
0010
0000
1000
0000
,
0001
0000
0010
0000
0100
0000
1000
0000
,
1000
0000
0100
0000
1000
0000
0100
0000
,
1000
0000
0100
0000
1000
0000
0100
0000
,
0110
0000
0001
1000
0100
0001
0100
0000
,
0110
0000
1000
0001
0010
1000
0010
0000
,
0110
0000
1000
0001
0010
1000
0010
0000
,
1100
0000
0001
1000
0001
1000
0010
0000
,
0110
0000
0001
1000
0100
0001
0100
0000
,
1001
0000
1000
0000
0010
1000
0001
0000
,
1100
0000
0001
1000
0001
1000
0010
0000
,
0110
0000
0001
1000
0100
0001
0100
0000
,
0110
0000
0001
1000
0010
0001
0010
0000
,
0110
0000
0001
1000
0100
0001
0100
0000
,
0110
0000
1000
0001
0100
1000
0100
0000
,
0110
0000
0001
1000
0100
0001
0100
0000
,
1001
0000
1000
0000
0010
1000
0001
0000
,
1001
0000
1000
0000
0100
1000
0001
0000
,
1100
0000
0001
1000
0001
1000
0010
0000
,
0110
0000
0001
1000
0100
0001
0002
0000
,
0000
0000
0000
0000
0000
0000
0000
0000
,
0000
0000
0000
0000
0000
0000
0000
0000
,
0000
0000
0000
0000
0000
0000
0000
0000
,
0000
0000
0003
0000
0000
0000
0000
0000
,
0000
0000
0001
0000
0000
0000
0000
0000
,
1000
0000
0010
0000
0100
0000
0001
0000
,
1000
0000
0010
0000
0100
0000
0001
0000
,
0001
0000
0010
0000
0100
0000
1000
0000
,
0001
0000
0100
0000
0010
0000
1000
0000
,
1000
0000
0010
0000
0100
0000
0001
0000
,
0001
0000
0010
0000
0100
0000
0200
0000
,
0000
0000
0000
0000
0000
0000
0300
0000
,
0001
0000
0000
0000
0000
0000
0010
0000
,
0110
0000
0001
1000
0100
0001
0100
0000
,
0110
0000
0001
1000
0100
0001
0100
0000
,
0110
0000
0001
1000
0010
0001
0010
0000
,
1100
0000
0001
1000
0001
1000
0010
0000
,
0110
0000
0001
1000
0100
0001
0100
0000
,
1001
0000
1000
0000
0010
1000
0001
0000
,
1100
0000
0001
1000
0001
1000
0010
0000
,
0110
0000
0001
1000
0100
0001
0100
0000
,
0110
0000
0001
1000
0100
0001
0100
0000
,
1100
0000
0001
1000
0001
1000
0010
0000
,
0110
0000
0001
1000
0100
0001
0100
0000
,
1100
0000
0001
1000
0001
1000
0010
0000
,
0110
0000
0001
1000
0100
0001
0100
0000
,
1001
0000
1000
0000
0010
1000
0001
0000
,
1100
0000
0001
1000
0001
1000
0010
0000
,
0110
0000
0001
1000
0100
0001
0100
0000
,
1000
0000
0000
0000
0000
0000
0000
0000
,
;
