#TITLE:Big Energy;
#SUBTITLE:;
#ARTIST:Latto;
#TITLETRANSLIT:;
#SUBTITLETRANSLIT:;
#ARTISTTRANSLIT:;
#GENRE:;
#CREDIT:Gorilla v1.1.3 (Dancing Monkeys v1.06);
#BANNER:;
#BACKGROUND:;
#LYRICSPATH:;
#CDTITLE:;
#MUSIC:Big Energy.mp3;
#OFFSET:-0.897229;
#SAMPLESTART:57.501392;
#SAMPLELENGTH:12.000000;
#SELECTABLE:YES;
#BPMS:0.000000=105.999001
;
#STOPS:
;
#BGCHANGES:;
#KEYSOUNDS:;
#ATTACKS:;

//---------------dance-single - Basic----------------
#NOTES:
     dance-single:
     Basic:
     Easy:
     3:
     0.122225,0.128875,0.000000,0.000000,0.000000,119.000000,119.000000,0.000000,0.000000,0.000000,0.000000,0.122225,0.128875,0.000000,0.000000,0.000000,119.000000,119.000000,0.000000,0.000000,0.000000,0.000000:
// measure 0
0000
0000
0000
1000
,  // measure 1
0000
0000
0000
1000
,  // measure 2
0000
0000
0000
1000
,  // measure 3
0001
0000
0000
1000
,  // measure 4
0000
0001
0000
0010
,  // measure 5
0000
0001
0000
0010
,  // measure 6
0000
0100
0000
0001
,  // measure 7
0000
0001
0000
0010
,  // measure 8
0000
0001
0000
0010
,  // measure 9
0000
1000
0000
1000
,  // measure 10
0000
0100
0000
0001
,  // measure 11
0000
0100
0000
0100
,  // measure 12
0000
0001
0000
0010
,  // measure 13
0000
0001
0000
0100
,  // measure 14
0000
0100
0000
0001
,  // measure 15
0000
0001
0000
0010
,  // measure 16
0000
0001
0000
0010
,  // measure 17
0000
0010
0000
0001
,  // measure 18
0000
0100
0000
0001
,  // measure 19
0000
0010
0000
0001
,  // measure 20
0000
0001
0000
0010
,  // measure 21
0000
1000
0000
0010
,  // measure 22
0000
0100
0000
0001
,  // measure 23
0001
0000
0100
0100
,  // measure 24
0000
1000
0000
0010
,  // measure 25
0000
0000
0000
1000
,  // measure 26
0000
0010
0000
1000
,  // measure 27
1000
0000
0000
1000
,  // measure 28
0000
0001
0000
0010
,  // measure 29
0000
1000
0000
0010
,  // measure 30
0000
0100
0000
0001
,  // measure 31
0000
1000
0000
0010
,  // measure 32
0000
1000
0000
0100
,  // measure 33
0000
0001
0000
0100
,  // measure 34
0000
0100
0000
0001
,  // measure 35
0000
0010
0000
1000
,  // measure 36
0000
0001
0000
0010
,  // measure 37
0000
1000
0000
0100
,  // measure 38
0000
0100
0000
1000
,  // measure 39
0000
0001
0000
0010
,  // measure 40
0000
0001
0000
0100
,  // measure 41
0000
1000
0000
0010
,  // measure 42
0000
0100
0000
0001
,  // measure 43
0001
0001
0000
0010
,  // measure 44
0000
1000
0000
0010
,  // measure 45
0000
1000
0000
0010
,  // measure 46
0000
0100
0000
0001
,  // measure 47
0000
1000
0000
0001
,  // measure 48
0000
0001
0000
0010
,  // measure 49
0000
0001
0000
0100
,  // measure 50
0000
0100
0000
0001
,  // measure 51
0000
0010
0000
1000
,  // measure 52
0000
1000
0000
0010
,  // measure 53
0000
1000
0000
0010
,  // measure 54
0000
0100
0000
1000
,  // measure 55
1000
1000
0000
0100
,  // measure 56
0000
0001
0000
0010
,  // measure 57
0000
0001
0000
0100
,  // measure 58
0000
0100
0000
0001
,  // measure 59
0000
0100
0000
0001
;
