#TITLE:Better Now;
#SUBTITLE:;
#ARTIST:Post Malone;
#TITLETRANSLIT:;
#SUBTITLETRANSLIT:;
#ARTISTTRANSLIT:;
#GENRE:;
#CREDIT:Gorilla v1.1.3 (Dancing Monkeys v1.06);
#BANNER:;
#BACKGROUND:;
#LYRICSPATH:;
#CDTITLE:;
#MUSIC:Better Now.mp3;
#OFFSET:-0.304626;
#SAMPLESTART:30.613018;
#SAMPLELENGTH:12.000000;
#SELECTABLE:YES;
#BPMS:0.000000=137.339996
;
#STOPS:-0.020833=10.000000
;
#BGCHANGES:;
#KEYSOUNDS:;
#ATTACKS:;

//---------------dance-single - Basic----------------
#NOTES:
     dance-single:
     Basic:
     Easy:
     1:
     0.241962,0.312149,0.000000,0.084687,0.000000,160.000000,160.000000,0.000000,8.000000,0.000000,0.000000,0.241962,0.312149,0.000000,0.084687,0.000000,160.000000,160.000000,0.000000,8.000000,0.000000,0.000000:
// measure 0
0000
0000
0000
0000
,  // measure 1
1000
0000
0000
0001
,  // measure 2
0000
1000
0000
0010
,  // measure 3
0000
0100
0000
0010
,  // measure 4
0000
1000
1000
0000
,  // measure 5
0001
0000
1000
0000
,  // measure 6
0010
0000
1000
0000
,  // measure 7
2000
3000
0000
0002
,  // measure 8
0000
0003
0000
0000
,  // measure 9
0000
1000
1000
0000
,  // measure 10
0010
0010
0000
1000
,  // measure 11
0000
0010
0010
1000
,  // measure 12
1000
0000
0001
0000
,  // measure 13
1000
1000
0000
0010
,  // measure 14
0010
0000
2000
0000
,  // measure 15
3000
0000
0002
0000
,  // measure 16
0003
0000
0000
0000
,  // measure 17
1000
0000
0010
0000
,  // measure 18
1000
0000
0010
0000
,  // measure 19
0100
0000
0001
0000
,  // measure 20
0010
0000
1000
0000
,  // measure 21
0010
0000
0100
0000
,  // measure 22
1000
0000
0010
0000
,  // measure 23
0100
0000
0001
0000
,  // measure 24
0010
0000
1000
0000
,  // measure 25
0010
0000
0100
0000
,  // measure 26
1000
0000
0010
0000
,  // measure 27
0100
0000
0001
0000
,  // measure 28
0010
0000
1000
0000
,  // measure 29
0010
0000
0100
0000
,  // measure 30
1000
0000
0010
0000
,  // measure 31
1000
0000
0010
0000
,  // measure 32
0100
0000
1000
0000
,  // measure 33
0010
0000
0100
0000
,  // measure 34
0001
0000
0010
0000
,  // measure 35
1000
0000
0010
0000
,  // measure 36
0100
0000
0001
0000
,  // measure 37
0010
0000
1000
0000
,  // measure 38
0010
0000
0100
0000
,  // measure 39
1000
0000
0010
0000
,  // measure 40
0001
0000
0010
0000
,  // measure 41
1000
0000
0100
0000
,  // measure 42
0001
0000
0010
0000
,  // measure 43
0001
0000
0010
0000
,  // measure 44
1000
0000
2000
0000
,  // measure 45
3000
0000
0001
0002
,  // measure 46
0000
0003
0000
0000
,  // measure 47
0000
1000
0000
0010
,  // measure 48
0000
1000
0000
0010
,  // measure 49
0000
0100
0000
0001
,  // measure 50
0000
0010
0000
1000
,  // measure 51
0000
0010
0000
0100
,  // measure 52
0000
0001
0000
0010
,  // measure 53
0000
1000
0000
0010
,  // measure 54
0000
0100
0000
0001
,  // measure 55
0000
0010
0000
1000
,  // measure 56
0000
0100
0000
0010
,  // measure 57
0000
0001
0000
0010
,  // measure 58
0000
0001
0000
0010
,  // measure 59
0000
1000
0000
0010
,  // measure 60
0000
0100
0000
0001
,  // measure 61
0000
1000
0000
0010
,  // measure 62
0000
0100
0000
0001
,  // measure 63
0000
0010
0000
1000
,  // measure 64
0000
0010
0000
1000
,  // measure 65
0000
0010
0000
0100
,  // measure 66
0000
0001
0000
0010
,  // measure 67
0000
1000
0000
0010
,  // measure 68
0000
0100
0000
0001
,  // measure 69
0000
0010
0000
1000
,  // measure 70
0000
0010
0000
0100
,  // measure 71
0000
0001
0000
0010
,  // measure 72
0000
1000
0000
0010
,  // measure 73
0000
0001
0000
0010
,  // measure 74
0000
1000
0000
0010
,  // measure 75
0000
0100
0000
1000
,  // measure 76
0010
0000
0000
0100
,  // measure 77
0000
0000
0001
0000
,  // measure 78
0010
0000
0000
1000
,  // measure 79
0000
0010
0000
1000
,  // measure 80
0000
0010
0000
0100
,  // measure 81
0000
0001
0000
1000
,  // measure 82
0000
0010
0000
2000
,  // measure 83
0000
3000
0002
0000
,  // measure 84
0000
0003
0000
0000
;
