#VERSION:0.83;
#TITLE:Best of Joy;
#SUBTITLE:MJ\: Best of Joy;
#ARTIST:Michael Jackson;
#TITLETRANSLIT:;
#SUBTITLETRANSLIT:;
#ARTISTTRANSLIT:;
#GENRE:POP;
#ORIGIN:;
#CREDIT:Gorilla v1.1.3 (Dancing Monkeys v1.06);
#BANNER:hqdefault.png;
#BACKGROUND:maxresdefault.png;
#PREVIEWVID:;
#JACKET:;
#CDIMAGE:;
#DISCIMAGE:;
#LYRICSPATH:;
#CDTITLE:;
#MUSIC:michael_jackson___best_of_joy.__lyrics_-Kuyjs6TNVcg-192k-1712873983.mp3;
#OFFSET:-0.147729;
#SAMPLESTART:32.961727;
#SAMPLELENGTH:12.000000;
#SELECTABLE:YES;
#BPMS:0.000=197.477;
#STOPS:;
#DELAYS:0.000=1.000;
#WARPS:;
#TIMESIGNATURES:0.000=4=4;
#TICKCOUNTS:0.000=4;
#COMBOS:0.000=1;
#SPEEDS:0.000=0.700=0.000=0;
#SCROLLS:0.000=1.000;
#FAKES:;
#LABELS:0.000=Song Start;
#BGCHANGES:;
#KEYSOUNDS:;
#ATTACKS:
;

//---------------dance-single - Basic----------------
#NOTEDATA:;
#CHARTNAME:Basic;
#STEPSTYPE:dance-single;
#DESCRIPTION:Basic;
#CHARTSTYLE:;
#DIFFICULTY:Easy;
#METER:3;
#RADARVALUES:0.236272,0.313890,0.000000,0.021114,0.000000,235.000000,235.000000,0.000000,3.000000,0.000000,0.000000,0.000000,0.000000,0.000000,0.236272,0.313890,0.000000,0.021114,0.000000,235.000000,235.000000,0.000000,3.000000,0.000000,0.000000,0.000000,0.000000,0.000000;
#CREDIT:Basic;
#NOTES:
0000
0000
0000
0000
,
0000
0000
0000
0000
,
0000
0000
0000
1000
,
1000
0000
1000
0000
,
0000
0000
0001
0000
,
0000
0000
0001
0000
,
0000
0000
1000
0000
,
0000
0000
1000
0000
,
0000
1000
0000
0000
,
0000
0000
1000
0000
,
0000
0000
1000
0000
,
0000
0000
1000
0000
,
0000
0000
0010
0000
,
0010
0000
0000
0000
,
0000
1000
0000
0000
,
1000
0000
0100
0000
,
0000
1000
0000
0000
,
1000
0000
0100
0000
,
0000
1000
0000
0000
,
1000
0000
0100
0000
,
0000
1000
0000
0000
,
1000
0000
0100
0000
,
0000
0001
0100
0000
,
1000
0010
0001
0000
,
0000
0001
0100
0000
,
1000
0000
0001
0001
,
0010
0010
0100
0000
,
1000
0010
0001
0000
,
0000
1000
0000
0000
,
1000
0000
0001
0001
,
0000
1000
0010
0000
,
0001
0000
0100
0100
,
0000
1000
0000
0000
,
1000
0000
0002
0000
,
0000
0000
0003
0000
,
1000
0000
0001
0000
,
0000
1000
0010
0000
,
1000
0000
0001
0001
,
0000
0001
0100
0000
,
1000
0000
0001
0001
,
0000
1000
0010
0000
,
1000
0010
0001
0000
,
0000
1000
0010
0000
,
1000
0000
0100
0010
,
0001
0010
0000
0000
,
1000
0000
0001
0001
,
0000
1000
0000
0000
,
1000
0000
0001
0001
,
0000
1000
0010
0000
,
1000
0000
0001
0001
,
0000
1000
0010
0000
,
1000
0000
0001
0001
,
0000
1000
0010
0000
,
1000
0000
0001
0001
,
0000
0001
0100
0000
,
1000
0000
0001
0001
,
0000
1000
0010
0000
,
1000
0000
0001
0001
,
0000
1000
0010
0000
,
1000
0000
0001
0001
,
0000
1000
0010
0000
,
1000
0000
0001
0001
,
0000
1000
0010
0000
,
1000
0000
0001
0001
,
0000
1000
0010
0000
,
1000
0000
0001
0001
,
0000
0001
0100
0000
,
1000
0000
0001
0001
,
0000
1000
0010
0000
,
1000
0000
0001
0001
,
0000
0001
0100
0000
,
1000
0000
0001
0001
,
0000
1000
0010
0000
,
1000
0000
0001
0001
,
0000
0001
0100
0000
,
1000
0000
0100
0010
,
1000
0010
0001
0000
,
1000
0000
0002
0000
,
0000
0000
0003
0000
,
1000
0000
0001
0000
,
0000
1000
0010
0000
,
1000
0000
0001
0001
,
0000
0001
0100
0000
,
1000
0000
0010
0010
,
0000
1000
0010
0000
,
1000
0010
1000
0000
,
0001
0020
0000
0000
,
0000
0000
0030
0000
,
0000
1000
0010
0000
,
1000
0000
0100
0100
,
0000
1000
0010
0000
,
1000
0000
0010
0010
,
0000
1000
0010
0000
,
1000
0010
0001
0000
,
0000
1000
0010
0000
,
0001
0000
0100
0000
,
0000
0001
0000
0000
,
0100
0010
1000
0000
,
0000
1000
0010
0000
,
1000
0000
0001
0001
,
0000
1000
0010
0000
,
1000
0000
1000
0010
,
0000
0001
0100
0000
,
1000
0010
0001
0000
,
0000
1000
0010
0000
,
1000
0010
0001
0000
,
0000
1000
0010
0000
,
1000
0000
0010
0100
,
0000
1000
0010
0000
,
0001
0000
0100
0000
,
0000
0000
1000
0010
,
0010
0010
0100
0000
;

//---------------dance-single - Basic----------------
#NOTEDATA:;
#CHARTNAME:;
#STEPSTYPE:dance-single;
#DESCRIPTION:Basic;
#CHARTSTYLE:;
#DIFFICULTY:Beginner;
#METER:3;
#RADARVALUES:0.079428,0.083047,0.000000,0.000000,0.000000,79.000000,79.000000,0.000000,0.000000,0.000000,0.000000,0.000000,0.000000,0.000000,0.079428,0.083047,0.000000,0.000000,0.000000,79.000000,79.000000,0.000000,0.000000,0.000000,0.000000,0.000000,0.000000,0.000000;
#CREDIT:;
#NOTES:
// measure 0
0000
0000
0000
0000
,  // measure 1
0000
0000
0000
0000
,  // measure 2
0000
0000
0000
1000
,  // measure 3
0000
0000
1000
0000
,  // measure 4
0000
0000
0001
0000
,  // measure 5
0000
0000
0001
0000
,  // measure 6
0000
0000
1000
0000
,  // measure 7
0000
0000
1000
0000
,  // measure 8
0000
1000
0000
0000
,  // measure 9
0000
0000
1000
0000
,  // measure 10
0000
0000
1000
0000
,  // measure 11
0000
0000
1000
0000
,  // measure 12
0000
0000
0010
0000
,  // measure 13
1000
0000
0000
0000
,  // measure 14
0000
1000
0000
0000
,  // measure 15
1000
0000
0100
0000
,  // measure 16
0000
1000
0000
0000
,  // measure 17
0001
0000
0100
0000
,  // measure 18
0000
0010
0000
0000
,  // measure 19
1000
0000
0100
0000
,  // measure 20
0000
1000
0000
0000
,  // measure 21
1000
0000
0100
0000
,  // measure 22
0000
0001
0000
0000
,  // measure 23
1000
0000
0001
0000
,  // measure 24
0000
0001
0000
0000
,  // measure 25
1000
0000
0000
0001
,  // measure 26
0000
0010
0000
0000
,  // measure 27
1000
0000
0001
0000
,  // measure 28
0000
1000
0000
0000
,  // measure 29
1000
0000
0000
0001
,  // measure 30
0000
1000
0000
0000
,  // measure 31
0001
0000
0100
0000
,  // measure 32
0000
1000
0000
0000
,  // measure 33
0010
0000
0001
0000
,  // measure 34
0000
0000
0000
0000
,  // measure 35
1000
0000
0001
0000
,  // measure 36
0000
1000
0000
0000
,  // measure 37
1000
0000
0001
0000
,  // measure 38
0000
0001
0000
0000
,  // measure 39
1000
0000
0000
0001
,  // measure 40
0000
1000
0000
0000
,  // measure 41
1000
0000
0001
0000
,  // measure 42
0000
1000
0000
0000
,  // measure 43
1000
0000
0100
0000
,  // measure 44
0001
0000
0000
0000
,  // measure 45
1000
0000
0000
0001
,  // measure 46
0000
1000
0000
0000
,  // measure 47
1000
0000
0000
0001
,  // measure 48
0000
1000
0000
0000
,  // measure 49
1000
0000
0000
0001
,  // measure 50
0000
1000
0000
0000
,  // measure 51
1000
0000
0000
0001
,  // measure 52
0000
1000
0000
0000
,  // measure 53
1000
0000
0001
0000
,  // measure 54
0000
0001
0000
0000
,  // measure 55
1000
0000
0000
0001
,  // measure 56
0000
1000
0000
0000
,  // measure 57
1000
0000
0000
0001
,  // measure 58
0000
1000
0000
0000
,  // measure 59
1000
0000
0000
0000
;
