#TITLE:Best Friend;
#SUBTITLE:;
#ARTIST:Dancing Monkeys Project;
#TITLETRANSLIT:;
#SUBTITLETRANSLIT:;
#ARTISTTRANSLIT:;
#GENRE:;
#CREDIT:Gorilla v1.1.3 (Dancing Monkeys v1.06);
#BANNER:badge.png;
#BACKGROUND:Toy-box_fantastic.png;
#LYRICSPATH:;
#CDTITLE:;
#MUSIC:onlymp3.to - Best Friend-E91FYRHZtKs-192k-1696869286.mp3;
#OFFSET:-2.016833;
#SAMPLESTART:45.177254;
#SAMPLELENGTH:12.000000;
#SELECTABLE:YES;
#BPMS:0.000000=139.016006
;
#STOPS:
;
#BGCHANGES:;
#KEYSOUNDS:;
#ATTACKS:;

//---------------dance-single - Basic----------------
#NOTES:
     dance-single:
     Basic:
     Easy:
     6:
     0.233835,0.237914,0.009517,0.038066,0.000000,172.000000,171.000000,1.000000,4.000000,0.000000,0.000000,0.233835,0.237914,0.009517,0.038066,0.000000,172.000000,171.000000,1.000000,4.000000,0.000000,0.000000:
// measure 0
0200
0000
0000
0000
,  // measure 1
0000
0000
0300
0000
,  // measure 2
1000
1000
0000
0000
,  // measure 3
0020
0000
0000
0030
,  // measure 4
2000
0000
0000
0000
,  // measure 5
0000
0000
0000
3000
,  // measure 6
0100
0002
0000
0000
,  // measure 7
0000
0000
0003
0001
,  // measure 8
1000
0001
0001
0100
,  // measure 9
0010
0100
0010
0010
,  // measure 10
0100
0100
0010
1000
,  // measure 11
0001
0010
0100
1000
,  // measure 12
0010
0001
0010
0100
,  // measure 13
1000
0001
0100
1000
,  // measure 14
0010
1000
0010
0001
,  // measure 15
1000
0010
0100
0001
,  // measure 16
0100
0100
0000
0100
,  // measure 17
0000
0001
0100
1000
,  // measure 18
0001
1000
0010
1000
,  // measure 19
0010
0100
0010
1000
,  // measure 20
0100
0001
0100
1000
,  // measure 21
0100
0001
0100
1000
,  // measure 22
0010
0001
0010
1000
,  // measure 23
0001
0100
0010
1000
,  // measure 24
0001
1000
0010
0000
,  // measure 25
1000
0100
0010
1000
,  // measure 26
0100
0010
0100
0001
,  // measure 27
0010
1000
0010
0001
,  // measure 28
0010
1000
0010
0001
,  // measure 29
0100
0001
0100
1000
,  // measure 30
0100
0001
0100
1000
,  // measure 31
0010
0001
0010
0100
,  // measure 32
0001
0010
0001
1000
,  // measure 33
0010
0100
0010
1000
,  // measure 34
0001
1000
0100
0001
,  // measure 35
1000
0001
0010
1000
,  // measure 36
0010
1000
0010
1000
,  // measure 37
0001
1000
0010
1000
,  // measure 38
0010
0001
0100
1000
,  // measure 39
0001
1000
0100
0001
,  // measure 40
1000
1000
0001
0010
,  // measure 41
0010
1000
0100
1000
,  // measure 42
0010
0001
0010
1000
,  // measure 43
0100
1000
0100
0001
,  // measure 44
1000
0001
0100
1000
,  // measure 45
0001
0001
0010
0001
,  // measure 46
1000
1000
0010
0100
,  // measure 47
0001
0001
0010
1000
,  // measure 48
0010
1000
0100
0001
,  // measure 49
1001
0000
0000
0000
,  // measure 50
0010
0000
0000
0000
;

//---------------dance-single - Basic----------------
#NOTES:
     dance-single:
     :
     Beginner:
     6:
     0.126434,0.117767,0.000000,0.009517,0.000000,93.000000,93.000000,0.000000,1.000000,0.000000,0.000000,0.126434,0.117767,0.000000,0.009517,0.000000,93.000000,93.000000,0.000000,1.000000,0.000000,0.000000:
0200
0000
0000
0000
,
0000
0000
0300
0000
,
1000
0000
0000
0000
,
0010
0000
0000
0000
,
1000
0000
0000
0010
,
0000
0000
0100
0000
,
1000
0000
0010
0000
,
0100
0000
0000
0001
,
0000
1000
0000
0001
,
0000
0100
0000
0010
,
0000
0100
0000
1000
,
0000
0010
0000
1000
,
0000
0001
0000
0100
,
0000
0001
0000
0100
,
0000
1000
0000
0001
,
1000
0000
0100
0000
,
1000
0000
0010
0000
,
0010
0000
0100
0000
,
0001
0000
0100
0000
,
0001
0000
0010
0000
,
1000
0000
0001
0000
,
1000
0000
0100
0000
,
0001
0000
0100
0000
,
0001
0000
0010
0000
,
0001
0000
0010
0000
,
1000
0000
0010
0000
,
0100
0000
0100
0000
,
0001
0000
0010
0000
,
0100
0000
0010
0000
,
1000
0000
0100
0000
,
0001
0000
0100
0000
,
0010
0000
1000
0000
,
0010
0000
0001
0000
,
0100
0000
0010
0000
,
0001
0000
0100
0000
,
1000
0000
0001
0000
,
0100
0000
0010
0000
,
0001
0000
0010
0000
,
0001
0000
0100
0000
,
0001
0000
0100
0000
,
1000
0000
0001
0000
,
0010
0000
0100
0000
,
0010
0000
0010
0000
,
0100
0000
0100
0000
,
1000
0000
0100
0000
,
0001
0000
0010
0000
,
1000
0000
0010
0000
,
0000
0001
0000
1000
,
0000
0000
0100
0000
,
1000
0000
0010
0000
;
