#VERSION:0.83;
#TITLE:Victoria Justice - Best Friend's Brother;
#SUBTITLE:;
#ARTIST:Dancing Monkeys Project;
#TITLETRANSLIT:;
#SUBTITLETRANSLIT:;
#ARTISTTRANSLIT:;
#GENRE:;
#ORIGIN:;
#CREDIT:Gorilla v1.1.3 (Dancing Monkeys v1.06);
#BANNER:;
#BACKGROUND:;
#PREVIEWVID:;
#JACKET:;
#CDIMAGE:;
#DISCIMAGE:;
#LYRICSPATH:;
#CDTITLE:;
#MUSIC:Victoria Justice - Best Friend's Brother.mp3;
#OFFSET:-1.014898;
#SAMPLESTART:45.574539;
#SAMPLELENGTH:12.000000;
#SELECTABLE:YES;
#BPMS:0.000=140.037;
#STOPS:;
#DELAYS:;
#WARPS:;
#TIMESIGNATURES:0.000=4=4;
#TICKCOUNTS:0.000=4;
#COMBOS:0.000=1;
#SPEEDS:0.000=1.700=0.000=0;
#SCROLLS:0.000=1.000;
#FAKES:;
#LABELS:0.000=Song Start;
#BGCHANGES:;
#KEYSOUNDS:;
#ATTACKS:
;

//---------------dance-single - Basic----------------
#NOTEDATA:;
#CHARTNAME:Basic;
#STEPSTYPE:dance-single;
#DESCRIPTION:Basic;
#CHARTSTYLE:;
#DIFFICULTY:Easy;
#METER:4;
#RADARVALUES:0.236621,0.259329,0.007633,0.000000,0.000000,217.000000,216.000000,1.000000,0.000000,0.000000,0.000000,0.000000,0.000000,0.000000,0.236621,0.259329,0.007633,0.000000,0.000000,217.000000,216.000000,1.000000,0.000000,0.000000,0.000000,0.000000,0.000000,0.000000;
#CREDIT:Basic;
#NOTES:
// measure 0
0001
0000
1000
0000
,  // measure 1
0001
0000
0100
0000
,  // measure 2
0001
0000
0010
0000
,  // measure 3
0100
0000
0010
0000
,  // measure 4
0001
0000
1000
0000
,  // measure 5
0100
0000
0001
0000
,  // measure 6
0100
0000
0010
0000
,  // measure 7
0100
0000
0010
0000
,  // measure 8
0001
0000
1000
0000
,  // measure 9
0100
0000
1000
0100
,  // measure 10
0001
0000
0010
0000
,  // measure 11
1000
0000
0010
0100
,  // measure 12
0001
0000
1000
0000
,  // measure 13
0100
0000
0010
0000
,  // measure 14
1000
0000
0010
0000
,  // measure 15
1000
0000
0001
0100
,  // measure 16
1000
0000
0001
0010
,  // measure 17
1000
0000
0001
0100
,  // measure 18
1000
0000
0001
0010
,  // measure 19
1000
0000
0001
0100
,  // measure 20
1000
0000
0001
0100
,  // measure 21
1000
0000
0001
0010
,  // measure 22
0001
0000
1000
0010
,  // measure 23
1000
0000
0001
0100
,  // measure 24
0001
0000
1000
0100
,  // measure 25
1000
0000
0001
0010
,  // measure 26
1000
0000
0001
0100
,  // measure 27
0001
0000
1000
0100
,  // measure 28
1000
0000
0001
0100
,  // measure 29
1000
0000
0001
0100
,  // measure 30
1000
0000
0001
0010
,  // measure 31
1000
0010
0000
0001
,  // measure 32
0001
0010
0000
1000
,  // measure 33
1000
0100
0000
0001
,  // measure 34
0000
0001
0100
0010
,  // measure 35
1000
0000
1001
0000
,  // measure 36
0100
0000
0010
0000
,  // measure 37
0100
0000
0010
0000
,  // measure 38
0100
0000
0010
0000
,  // measure 39
0100
0000
0001
0000
,  // measure 40
0100
0000
0001
0000
,  // measure 41
0010
0000
1000
0000
,  // measure 42
0100
0000
0001
0000
,  // measure 43
1000
0000
0001
0000
,  // measure 44
0100
0000
1000
0100
,  // measure 45
0001
0000
0010
0000
,  // measure 46
1000
0000
1000
0100
,  // measure 47
0001
0000
0010
0000
,  // measure 48
0100
0000
0010
0000
,  // measure 49
0001
0000
1000
0000
,  // measure 50
0010
0000
0100
0000
,  // measure 51
0010
0000
0000
0000
,  // measure 52
1000
0000
0001
0100
,  // measure 53
1000
0000
0001
0010
,  // measure 54
0100
0000
1000
0100
,  // measure 55
1000
0000
0001
0100
,  // measure 56
1000
0001
0001
0100
,  // measure 57
0001
1000
1000
0100
,  // measure 58
0001
0001
1000
1000
,  // measure 59
1000
1000
0010
0010
,  // measure 60
0001
0000
1000
0100
,  // measure 61
1000
0000
0001
0010
,  // measure 62
0001
1000
1000
0100
,  // measure 63
1000
0001
0001
0010
,  // measure 64
1000
1000
0001
0010
,  // measure 65
0001
0001
1000
1000
,  // measure 66
0001
0001
1000
1000
,  // measure 67
1000
1000
0001
0001
,  // measure 68
0001
0100
0100
1000
,  // measure 69
1000
0010
0010
0001
,  // measure 70
0001
0100
0100
1000
,  // measure 71
1000
0010
0010
1000
,  // measure 72
1000
0100
0100
1000
,  // measure 73
1000
0010
0010
0001
,  // measure 74
0100
0100
0001
0001
,  // measure 75
0010
0010
0100
0000
;

//---------------dance-single - Standard----------------
#NOTEDATA:;
#CHARTNAME:Standard;
#STEPSTYPE:dance-single;
#DESCRIPTION:Standard;
#CHARTSTYLE:;
#DIFFICULTY:Medium;
#METER:7;
#RADARVALUES:0.380557,0.399394,0.694598,0.000000,0.000000,349.000000,258.000000,91.000000,0.000000,0.000000,0.000000,0.000000,0.000000,0.000000,0.380557,0.399394,0.694598,0.000000,0.000000,349.000000,258.000000,91.000000,0.000000,0.000000,0.000000,0.000000,0.000000,0.000000;
#CREDIT:Standard;
#NOTES:
0011
0000
0001
0000
0101
0000
0000
0000
,
1100
0000
0000
0000
0110
0000
0001
0000
,
0011
0000
0001
0000
0101
0000
0000
0000
,
1100
0000
0000
0000
0110
0000
0001
0000
,
0011
0000
0001
0000
0101
0000
0000
0000
,
1100
0000
0000
0000
0110
0000
0001
0000
,
0011
0000
0001
0000
0101
0000
0000
0000
,
1100
0000
0000
0000
0110
0000
0001
0000
,
1100
0000
0000
0000
0001
0000
1000
0000
,
0101
0000
1000
0000
1001
0000
0001
0000
,
0011
0000
0001
0000
0101
0000
0000
0000
,
0101
0000
1000
0000
1001
0000
0001
0000
,
0011
0000
0001
0000
0101
0000
0000
0000
,
1100
0000
0000
0000
0110
0000
0001
0000
,
0011
0000
0001
0000
0101
0000
0000
0000
,
0000
,
0101
0000
0001
0000
0100
0000
0001
0000
,
0011
0000
0001
0000
0010
0000
0001
0000
,
1010
0000
1000
0000
0010
0000
1000
0000
,
1100
0000
1000
0000
0100
0000
1000
0000
,
1010
0000
1000
0000
0010
0000
1000
0000
,
1100
0000
1000
0000
0100
0000
1000
0000
,
0101
0000
0001
0000
0100
0000
0001
0000
,
0011
0000
0001
0000
0010
0000
0001
0000
,
1100
0000
1000
0000
0100
0000
1000
0000
,
0011
0000
0001
0000
0010
0000
0001
0000
,
1010
0000
1000
0000
0010
0000
1000
0000
,
0101
0000
0001
0000
0100
0000
0001
0000
,
0101
0000
0001
0000
0100
0000
0001
0000
,
1100
0000
1000
0000
0100
0000
1000
0000
,
0011
0000
0001
0000
0010
0000
0001
0000
,
0101
0000
0001
0000
0100
0000
0001
0000
,
1000
0000
0100
0000
0000
0000
0010
0000
,
1000
0000
0100
0000
0000
0000
0010
0000
,
0001
0000
0100
0000
0000
0000
0010
0000
,
0001
0000
0010
0000
1000
0000
0010
0000
,
1010
0000
0000
0000
1001
0000
1000
0000
,
1100
0000
0000
0000
0110
0000
0001
0000
,
0011
0000
0001
0000
0101
0000
0000
0000
,
1100
0000
0000
0000
0110
0000
0001
0000
,
1010
0000
0000
0000
1001
0000
1000
0000
,
1100
0000
0000
0000
0110
0000
0001
0000
,
0011
0000
0001
0000
0101
0000
0000
0000
,
1100
0000
0000
0000
0110
0000
0001
0000
,
1010
0000
0000
0000
1001
0000
1000
0000
,
0101
0000
1000
0000
1001
0000
0001
0000
,
0011
0000
0001
0000
0101
0000
0000
0000
,
0101
0000
1000
0000
1001
0000
0001
0000
,
0011
0000
0001
0000
0101
0000
0000
0000
,
1100
0000
0000
0000
0110
0000
0001
0000
,
0011
0000
0001
0000
0101
0000
0000
0000
,
0000
,
1010
0000
0001
0010
0001
0000
0010
0000
,
0101
0000
0001
0000
0100
0000
0001
0000
,
0101
0000
0001
0000
0100
0000
0001
0000
,
1010
0000
0001
0010
0001
0000
0010
0000
,
0101
0000
0001
0000
0100
0000
0001
0000
,
0101
0000
0001
0000
0100
0000
0001
0000
,
1100
0000
1000
0000
0100
0000
1000
0000
,
0101
0000
0001
0000
0100
0000
0001
0000
,
1100
0000
1000
0000
0100
0000
1000
0000
,
0101
0000
0001
0000
0100
0000
0001
0000
,
1100
0000
1000
0000
0100
0000
1000
0000
,
1100
0000
1000
0000
0100
0000
1000
0000
,
1100
0000
1000
0000
0100
0000
1000
0000
,
1100
0000
1000
0000
0100
0000
1000
0000
,
1010
0000
1000
0000
0010
0000
1000
0000
,
1010
0000
1000
0000
0010
0000
1000
0000
,
1000
0000
0100
0000
0000
0000
0010
0000
,
0001
0000
0100
0000
0000
0000
0010
0000
,
1000
0000
0100
0000
0000
0000
0010
0000
,
1000
0000
0100
0000
0000
0000
0010
0000
,
0001
0000
0010
0000
0000
0000
0100
0000
,
1000
0000
0100
0000
0000
0000
0010
0000
,
0001
0000
0010
0000
0000
0000
0100
0000
,
;

//---------------dance-single - Heavy----------------
#NOTEDATA:;
#CHARTNAME:Heavy;
#STEPSTYPE:dance-single;
#DESCRIPTION:Heavy;
#CHARTSTYLE:;
#DIFFICULTY:Hard;
#METER:7;
#RADARVALUES:0.426355,0.399394,0.702231,0.000000,0.000000,391.000000,299.000000,92.000000,0.000000,0.000000,0.000000,0.000000,0.000000,0.000000,0.426355,0.399394,0.702231,0.000000,0.000000,391.000000,299.000000,92.000000,0.000000,0.000000,0.000000,0.000000,0.000000,0.000000;
#CREDIT:Heavy;
#NOTES:
1001
0000
0001
0000
1100
0000
0000
0000
,
0110
0000
0000
0000
1100
0000
1000
0000
,
1001
0000
0001
0000
1100
0000
0000
0000
,
0110
0000
0000
0000
1100
0000
1000
0000
,
1001
0000
0001
0000
1100
0000
0000
0000
,
0110
0000
0000
0000
1100
0000
1000
0000
,
1001
0000
0001
0000
1100
0000
0000
0000
,
0110
0000
0000
0000
1100
0000
1000
0000
,
1010
0000
1000
0000
1001
0000
0001
0000
,
0110
0000
0001
0000
0011
0000
0001
0000
,
1001
0000
0001
0000
1100
0000
0000
0000
,
0110
0000
0001
0000
0011
0000
0001
0000
,
1001
0000
0001
0000
1100
0000
0000
0000
,
0110
0000
0000
0000
1100
0000
1000
0000
,
1001
0000
0001
0000
1100
0000
0000
0000
,
0000
,
1001
0000
0001
0100
0010
0000
1000
0000
,
1001
0000
1000
0100
0010
0000
0001
0000
,
1001
0000
1000
0100
0010
0000
0001
0000
,
1001
0000
0001
0010
0100
0000
1000
0000
,
1001
0000
1000
0100
0010
0000
0001
0000
,
1001
0000
0001
0100
0010
0000
1000
0000
,
1001
0000
1000
0010
0100
0000
0001
0000
,
1001
0000
1000
0010
0100
0000
0001
0000
,
1001
0000
1000
0010
0100
0000
0001
0000
,
1001
0000
0001
0100
0010
0000
1000
0000
,
1001
0000
0001
0100
0010
0000
1000
0000
,
1001
0000
1000
0100
0010
0000
0001
0000
,
1001
0000
0001
0100
0010
0000
1000
0000
,
1001
0000
1000
0100
0010
0000
0001
0000
,
1001
0000
0001
0100
0010
0000
1000
0000
,
1001
0000
0001
0010
0100
0000
1000
0000
,
0001
0000
1000
0000
0100
0000
1000
0000
,
0001
0000
1000
0000
0010
0000
1000
0000
,
1000
0000
0001
0000
0100
0000
0001
0000
,
0001
0000
0100
0000
0001
0000
0100
0000
,
1010
0000
0000
0000
0011
0000
1000
0000
,
0110
0000
0000
0000
1100
0000
1000
0000
,
1001
0000
0001
0000
1100
0000
0000
0000
,
0110
0000
0000
0000
1100
0000
1000
0000
,
1010
0000
0000
0000
0011
0000
1000
0000
,
0110
0000
0000
0000
1100
0000
1000
0000
,
1001
0000
0001
0000
1100
0000
0000
0000
,
0110
0000
0000
0000
1100
0000
1000
0000
,
1010
0000
0000
0000
0011
0000
1000
0000
,
0110
0000
0001
0000
0011
0000
0001
0000
,
1001
0000
0001
0000
1100
0000
0000
0000
,
0110
0000
0001
0000
0011
0000
0001
0000
,
1001
0000
0001
0000
1100
0000
0000
0000
,
0110
0000
0000
0000
1100
0000
1000
0000
,
1001
0000
0001
0000
1100
0000
0000
0000
,
0000
,
0110
0000
1000
0100
0010
0000
0100
0000
,
1001
0000
0001
0100
0010
0000
1000
0000
,
1001
0000
1000
0010
0100
0000
0001
0000
,
0110
0000
1000
0100
0010
0000
0100
0000
,
1001
0000
0001
0100
0010
0000
1000
0000
,
1001
0000
0001
0100
0010
0000
1000
0000
,
1001
0000
0001
0100
0010
0000
1000
0000
,
1001
0000
1000
0010
0100
0000
0001
0000
,
1001
0000
1000
0010
0100
0000
0001
0000
,
1001
0000
0001
0100
0010
0000
1000
0000
,
1001
0000
1000
0100
0010
0000
0001
0000
,
1001
0000
0001
0100
0010
0000
1000
0000
,
1001
0000
1000
0100
0010
0000
0001
0000
,
1001
0000
1000
0100
0010
0000
0001
0000
,
1001
0000
0001
0010
0100
0000
1000
0000
,
1001
0000
0001
0100
0010
0000
1000
0000
,
0001
0000
1000
0000
0100
0000
1000
0000
,
0001
0000
1000
0000
0010
0000
1000
0000
,
0001
0000
1000
0000
0100
0000
1000
0000
,
0001
0000
1000
0000
0100
0000
1000
0000
,
0001
0000
1000
0000
0010
0000
1000
0000
,
1000
0000
0001
0000
0100
0000
0001
0000
,
1000
0000
0001
0000
0100
0000
0001
0000
,
;
