#TITLE:Berserk 90's Intro;
#SUBTITLE:;
#ARTIST:Berserk;
#TITLETRANSLIT:;
#SUBTITLETRANSLIT:;
#ARTISTTRANSLIT:;
#GENRE:;
#CREDIT:Gorilla v1.1.3 (Dancing Monkeys v1.06);
#BANNER:Berserk-anime-2016-jpg.png;
#BACKGROUND:A328-14.png;
#LYRICSPATH:;
#CDTITLE:;
#MUSIC:Berserk intro (HD).mp3;
#OFFSET:-1.071769;
#SAMPLESTART:51.459526;
#SAMPLELENGTH:12.000000;
#SELECTABLE:YES;
#BPMS:0.000000=119.076546
;
#STOPS:
;
#BGCHANGES:;
#KEYSOUNDS:;
#ATTACKS:;

//---------------dance-single - Basic----------------
#NOTES:
     dance-single:
     Basic:
     Easy:
     3:
     0.152630,0.162042,0.000000,0.014245,0.000000,75.000000,75.000000,0.000000,1.000000,0.000000,0.000000,0.152630,0.162042,0.000000,0.014245,0.000000,75.000000,75.000000,0.000000,1.000000,0.000000,0.000000:
// measure 0
0000
1000
1000
1000
,  // measure 1
0000
0001
0000
0010
,  // measure 2
0000
1000
1000
0000
,  // measure 3
1000
0001
0001
0000
,  // measure 4
0001
1000
1000
0000
,  // measure 5
0001
1000
1000
0000
,  // measure 6
1000
0001
0001
0000
,  // measure 7
1000
0001
0001
0000
,  // measure 8
0001
0000
0100
0000
,  // measure 9
1000
0000
0001
0000
,  // measure 10
1000
1000
0000
0001
,  // measure 11
0001
0000
0100
0000
,  // measure 12
0100
0000
1000
0000
,  // measure 13
0010
0000
0010
0000
,  // measure 14
1000
0000
0001
0000
,  // measure 15
0100
0000
1000
0000
,  // measure 16
0100
0000
0001
0000
,  // measure 17
1000
1000
0001
0000
,  // measure 18
1000
0000
0010
0000
,  // measure 19
1000
0000
0010
0000
,  // measure 20
1000
0000
0010
0000
,  // measure 21
1000
0000
0001
0001
,  // measure 22
0001
0000
0001
0000
,  // measure 23
0100
0100
0100
0000
,  // measure 24
1000
0000
0001
0000
,  // measure 25
1000
0000
0010
0000
,  // measure 26
1000
0000
0001
0000
,  // measure 27
1000
0000
0010
0000
,  // measure 28
0100
0000
0001
0000
,  // measure 29
0010
0000
0100
0000
,  // measure 30
0001
0000
0010
1000
,  // measure 31
1000
0000
2000
0000
,  // measure 32
0000
0000
3000
0000
;
