#TITLE:Benjamins Deli [REMIX];
#SUBTITLE:;
#ARTIST:Dancing Monkeys Project;
#TITLETRANSLIT:;
#SUBTITLETRANSLIT:;
#ARTISTTRANSLIT:;
#GENRE:;
#CREDIT:Gorilla v1.1.3 (Dancing Monkeys v1.06);
#BANNER:artworks-CQZEsQ6C7NZ0ltPx-dvKIMQ-t500x500.png;
#BACKGROUND:41OVsqCNirL._UXNaN_FMjpg_QL85_.png;
#LYRICSPATH:;
#CDTITLE:;
#MUSIC:Benjamins Deli [REMIX].mp3;
#OFFSET:-0.201882;
#SAMPLESTART:44.746094;
#SAMPLELENGTH:12.000000;
#SELECTABLE:YES;
#BPMS:0.000000=161.636993
;
#STOPS:
;
#BGCHANGES:;
#KEYSOUNDS:;
#ATTACKS:;

//---------------dance-single - Basic----------------
#NOTES:
     dance-single:
     Basic:
     Easy:
     5:
     0.156212,0.162121,0.000000,0.000000,0.000000,151.000000,151.000000,0.000000,0.000000,0.000000,0.000000,0.156212,0.162121,0.000000,0.000000,0.000000,151.000000,151.000000,0.000000,0.000000,0.000000,0.000000:
1000
0000
0000
0000
,
0010
0010
0010
0010
,
0000
0000
0000
0000
,
0001
0001
0001
0001
,
0000
0000
0000
0000
,
0010
0010
0010
0010
,
0000
0000
0000
0000
,
0100
0100
0100
0100
,
0001
0001
0100
0010
,
1000
0001
0010
0100
,
1000
0001
0010
0100
,
0001
1000
0100
0010
,
0001
1000
0100
0010
,
1000
0001
0100
0010
,
0001
1000
0100
0010
,
0001
1000
0100
0010
,
0001
0000
0000
0000
,
0010
0010
0010
0010
,
0000
0000
0000
0000
,
0001
0001
0001
0001
,
0000
0000
0000
0000
,
1000
1000
1000
1000
,
0000
0000
0000
0000
,
0010
0010
0010
0010
,
1000
0001
0010
0100
,
1000
0001
0100
0010
,
0001
1000
0100
0010
,
1000
0001
0100
0010
,
0001
1000
0010
0100
,
1000
0001
0100
0010
,
1000
0010
0100
0001
,
1000
0001
0100
0010
,
1000
0000
0000
0000
,
1000
0100
0010
0001
,
0000
0000
0000
0000
,
1000
1000
0010
0010
,
0000
0000
0000
0000
,
0100
0100
0010
0010
,
0000
0000
0000
0000
,
0010
0010
0010
0010
,
0100
0100
0100
0100
,
0010
0010
0010
0100
,
0100
0010
0010
0001
,
0001
0100
0100
1000
,
1000
1000
0010
0010
,
0010
0001
0100
0010
,
1000
0010
0001
1000
,
1000
0010
0010
0010
,
0000
0000
0000
0000
,
0001
0001
0001
0001
;

//---------------dance-single - Basic----------------
#NOTES:
     dance-single:
     :
     Beginner:
     5:
     0.099313,0.090520,0.000000,0.000000,0.000000,96.000000,96.000000,0.000000,0.000000,0.000000,0.000000,0.099313,0.090520,0.000000,0.000000,0.000000,96.000000,96.000000,0.000000,0.000000,0.000000,0.000000:
// measure 0
1000
0000
0000
0000
,  // measure 1
1000
0000
0010
0000
,  // measure 2
1000
0000
0000
0000
,  // measure 3
0010
0000
0001
0000
,  // measure 4
0100
0000
0000
0000
,  // measure 5
1000
0000
0001
0000
,  // measure 6
0100
0000
0000
0000
,  // measure 7
0010
0000
1000
0000
,  // measure 8
0001
0000
0100
0000
,  // measure 9
1000
0000
0010
0000
,  // measure 10
1000
0000
0010
0000
,  // measure 11
0001
0000
0100
0000
,  // measure 12
0001
0000
0100
0000
,  // measure 13
1000
0000
0100
0000
,  // measure 14
0001
0000
0100
0000
,  // measure 15
0001
0000
0100
0000
,  // measure 16
0001
0100
0000
0000
,  // measure 17
0001
0000
0100
0000
,  // measure 18
0010
0000
0000
0000
,  // measure 19
0001
0000
0001
0000
,  // measure 20
0010
0000
0100
0000
,  // measure 21
1000
0000
0010
0000
,  // measure 22
0100
0000
0001
0000
,  // measure 23
1000
0000
0010
0000
,  // measure 24
1000
0000
0010
0000
,  // measure 25
1000
0000
0100
0000
,  // measure 26
0001
0000
0100
0000
,  // measure 27
1000
0000
0100
0000
,  // measure 28
0001
0000
0010
0000
,  // measure 29
1000
0000
0100
0000
,  // measure 30
1000
0000
0100
0000
,  // measure 31
1000
0000
0100
0000
,  // measure 32
1000
0000
0010
0000
,  // measure 33
1000
0000
0010
0000
,  // measure 34
0010
0000
1000
0000
,  // measure 35
1000
0000
0010
0000
,  // measure 36
0100
0000
0001
0000
,  // measure 37
0100
0000
0010
0000
,  // measure 38
1000
0000
0010
0000
,  // measure 39
0010
0000
0010
0000
,  // measure 40
0100
0000
0100
0000
,  // measure 41
0010
0000
0010
0000
,  // measure 42
0100
0000
0010
0000
,  // measure 43
0001
0000
0100
0000
,  // measure 44
1000
0000
0010
0000
,  // measure 45
0010
0000
0100
0000
,  // measure 46
1000
0000
0001
0000
,  // measure 47
1000
0000
0010
0000
,  // measure 48
0100
0000
0001
0000
,  // measure 49
0010
0000
1000
0000
,  // measure 50
0010
0000
0000
0000
;
