#TITLE:akon - beautiful speed up reverb;
#SUBTITLE:;
#ARTIST:Dancing Monkeys Project;
#TITLETRANSLIT:;
#SUBTITLETRANSLIT:;
#ARTISTTRANSLIT:;
#GENRE:;
#CREDIT:Gorilla v1.1.3 (Dancing Monkeys v1.06);
#BANNER:maxresdefault.png;
#BACKGROUND:ab67616d0000b2739394f4d49f1598a13a580ebc.png;
#LYRICSPATH:;
#CDTITLE:;
#MUSIC:akon - beautiful speed up reverb.mp3;
#OFFSET:-0.279333;
#SAMPLESTART:43.593002;
#SAMPLELENGTH:12.000000;
#SELECTABLE:YES;
#BPMS:0.000000=155.147003
;
#STOPS:
;
#BGCHANGES:;
#KEYSOUNDS:;
#ATTACKS:;

//---------------dance-single - Basic----------------
#NOTES:
     dance-single:
     Basic:
     Easy:
     4:
     0.103164,0.098445,0.000000,0.000000,0.000000,138.000000,138.000000,0.000000,0.000000,0.000000,0.000000,0.103164,0.098445,0.000000,0.000000,0.000000,138.000000,138.000000,0.000000,0.000000,0.000000,0.000000:
0000
0000
1000
0000
,
0000
0000
0001
0000
,
0000
0000
1000
0000
,
0000
0000
0000
0000
,
1000
0000
0001
0000
,
0000
0010
0000
0000
,
1000
0000
0000
0000
,
0001
0000
1000
0000
,
0010
0000
0000
0100
,
0000
0001
0000
0100
,
0000
0001
0000
0100
,
0000
0000
0100
0000
,
0000
1000
0000
0010
,
0000
0001
0000
1000
,
0000
0001
0000
1000
,
0000
0001
0000
0100
,
0000
0010
0000
0100
,
0000
0100
0000
0000
,
0001
0000
1000
0000
,
0010
0000
0001
0000
,
1000
0000
0010
0000
,
1000
0000
1000
0000
,
0001
0000
0100
0000
,
1000
0000
0000
0010
,
0000
0000
0001
0000
,
1000
0000
0100
0000
,
0001
0000
0010
0000
,
1000
0000
1000
0000
,
0001
0000
0001
0000
,
1000
0000
1000
0000
,
0001
0000
0100
0000
,
0001
0000
0100
0000
,
0010
0000
1000
0000
,
0010
0000
0100
0000
,
0001
0000
0100
0000
,
0000
0001
0000
0001
,
0000
1000
0000
0010
,
0000
0001
0000
0100
,
0000
0000
0001
1000
,
0000
1000
0000
0010
,
0000
0010
0000
0100
,
0000
0010
0000
0001
,
0000
0010
0000
0000
,
0001
0000
0000
0010
,
0000
0010
0000
0000
,
1000
0000
1000
0000
,
0001
0000
0001
0000
,
1000
0000
1000
0000
,
0000
0001
0000
0010
,
0000
0010
0000
1000
,
0000
0010
0000
0000
,
1000
0000
1000
0000
,
1000
0000
0000
0010
,
0000
1000
0000
0001
,
0000
0100
0000
0010
,
0000
1000
0000
0001
,
0000
0100
0000
0010
,
0000
0010
0000
0010
,
0000
1000
0000
0100
,
0000
0010
0000
0001
,
0000
0100
0000
1000
,
0000
0001
0000
0010
,
0000
1000
0000
1000
,
0000
0010
0000
0100
,
0000
1000
0000
1000
,
0000
0001
0000
0001
,
0000
0010
0000
0100
,
0000
0100
0000
0100
,
0000
0001
0000
0010
,
0000
1000
0000
1000
,
0000
0001
0000
0010
,
0000
0100
0000
0100
,
0000
0001
0000
0010
,
0000
1000
0000
1000
,
0000
0100
0000
0001
,
0000
0010
0000
0000
;
