#TITLE:Beautiful Girls;
#SUBTITLE:;
#ARTIST:Dancing Monkeys Project;
#TITLETRANSLIT:;
#SUBTITLETRANSLIT:;
#ARTISTTRANSLIT:;
#GENRE:;
#CREDIT:Gorilla v1.1.3 (Dancing Monkeys v1.06);
#BANNER:maxresdefault.png;
#BACKGROUND:R-1612733-1590440204-2024.jpg;
#LYRICSPATH:;
#CDTITLE:;
#MUSIC:onlymp3.to - Beautiful Girls HQ flac Sean Kingston-JYd-rwqE4l8-192k-1696893143.mp3;
#OFFSET:-2.037417;
#SAMPLESTART:48.187420;
#SAMPLELENGTH:12.000000;
#SELECTABLE:YES;
#BPMS:0.000000=130.011002
;
#STOPS:
;
#BGCHANGES:;
#KEYSOUNDS:;
#ATTACKS:;

//---------------dance-single - Basic----------------
#NOTES:
     dance-single:
     :
     Easy:
     5:
     0.262385,0.232323,0.000000,0.000000,0.000000,193.000000,193.000000,0.000000,0.000000,0.000000,0.000000,0.262385,0.232323,0.000000,0.000000,0.000000,193.000000,193.000000,0.000000,0.000000,0.000000,0.000000:
// measure 0
0000
0000
0000
0000
,  // measure 1
1000
1000
0100
0000
,  // measure 2
0001
0010
0010
0000
,  // measure 3
1000
0100
0100
0000
,  // measure 4
0010
0100
0100
0001
,  // measure 5
0010
0010
0000
1000
,  // measure 6
1000
0100
0000
0010
,  // measure 7
0010
0001
0000
0100
,  // measure 8
0100
1000
0000
0000
,  // measure 9
1000
0010
1000
0010
,  // measure 10
0001
1000
0100
0010
,  // measure 11
1000
0010
0010
0010
,  // measure 12
1000
1000
1000
0010
,  // measure 13
0010
0100
0100
1000
,  // measure 14
1000
0010
0010
0001
,  // measure 15
0001
0010
0010
1000
,  // measure 16
1000
0100
0100
0000
,  // measure 17
0000
0010
0100
0000
,  // measure 18
1000
0010
0010
1000
,  // measure 19
1000
0000
0100
1000
,  // measure 20
1000
0001
0001
1000
,  // measure 21
1000
0010
0100
0001
,  // measure 22
1000
0010
0001
1000
,  // measure 23
1000
0010
0100
0010
,  // measure 24
0001
0010
0010
1000
,  // measure 25
1000
0010
0100
1000
,  // measure 26
1000
0010
0010
0100
,  // measure 27
1000
0010
0100
0010
,  // measure 28
0001
0100
0010
1000
,  // measure 29
1000
0010
0100
0010
,  // measure 30
1000
0010
0001
0100
,  // measure 31
1000
0010
0100
1000
,  // measure 32
1000
0010
0010
1000
,  // measure 33
1000
0010
0100
1000
,  // measure 34
0001
0010
0001
0100
,  // measure 35
1000
0100
0000
0010
,  // measure 36
0100
0010
0001
0100
,  // measure 37
0010
0001
0100
0001
,  // measure 38
1000
0010
1000
0100
,  // measure 39
0010
0001
0100
0010
,  // measure 40
0100
0000
0000
0000
,  // measure 41
0010
0001
0010
0001
,  // measure 42
0010
0100
0010
1000
,  // measure 43
0100
0010
0001
0001
,  // measure 44
0001
0001
0010
0100
,  // measure 45
0100
0001
0001
0100
,  // measure 46
0010
0010
1000
0100
,  // measure 47
0010
0001
0100
0010
,  // measure 48
0100
0000
0000
0000
,  // measure 49
0010
0001
0100
0010
,  // measure 50
0100
0100
0010
0010
,  // measure 51
0001
0001
1000
0100
,  // measure 52
0001
0010
1000
0100
,  // measure 53
0010
0100
0000
0010
,  // measure 54
0000
0001
0000
0000
;

//---------------dance-single - Basic----------------
#NOTES:
     dance-single:
     :
     Beginner:
     5:
     0.145467,0.129068,0.000000,0.000000,0.000000,107.000000,107.000000,0.000000,0.000000,0.000000,0.000000,0.145467,0.129068,0.000000,0.000000,0.000000,107.000000,107.000000,0.000000,0.000000,0.000000,0.000000:
0000
0000
0000
0000
,
1000
0000
0100
0000
,
0001
0000
0010
0000
,
1000
0000
0100
0000
,
0010
0000
0100
0000
,
0001
0000
0100
0000
,
1000
0000
0100
0000
,
1000
0000
0100
0000
,
1000
0000
0100
0000
,
1000
0000
0010
0000
,
0001
0000
0100
0000
,
1000
0000
0100
0000
,
1000
0000
0001
0000
,
1000
0000
0100
0000
,
1000
0000
0010
0000
,
0001
0000
0010
0000
,
1000
0000
0100
0000
,
1000
0000
0100
0000
,
1000
0000
0010
0000
,
1000
0000
0100
0000
,
1000
0000
0001
0000
,
1000
0000
0100
0000
,
1000
0000
0001
0000
,
1000
0000
0100
0000
,
0001
0000
0010
0000
,
1000
0000
0100
0000
,
1000
0000
0010
0000
,
1000
0000
0100
0000
,
0001
0000
0010
0000
,
1000
0000
0100
0000
,
1000
0000
0001
0000
,
1000
0000
0100
0000
,
1000
0000
0010
0000
,
1000
0000
0100
0000
,
0001
0000
0001
0000
,
1000
0000
0000
0010
,
0000
0010
0000
0100
,
0000
0001
0000
0001
,
0000
0010
0000
0100
,
0000
0001
0000
0010
,
0000
1000
0000
0100
,
0000
0001
0000
0010
,
0000
0100
0000
1000
,
0000
0010
0000
0001
,
0000
0010
0000
0100
,
0000
0001
0000
0100
,
0000
0010
0000
0100
,
0000
0001
0000
0010
,
0000
1000
0000
1000
,
0000
0001
0000
0010
,
0000
0100
0000
0010
,
0000
0001
0000
0100
,
0000
0010
0000
0100
,
0000
0100
0000
0010
,
0000
0001
0000
0000
;
