#VERSION:0.83;
#TITLE:beam ahh remix w tana!;
#SUBTITLE:;
#ARTIST:Dancing Monkeys Project;
#TITLETRANSLIT:;
#SUBTITLETRANSLIT:;
#ARTISTTRANSLIT:;
#GENRE:;
#ORIGIN:;
#CREDIT:Gorilla v1.1.3 (Dancing Monkeys v1.06);
#BANNER:maxresdefault.png;
#BACKGROUND:artworks-LibJVIzpR9TO-0-t500x500.png;
#PREVIEWVID:;
#JACKET:;
#CDIMAGE:;
#DISCIMAGE:;
#LYRICSPATH:;
#CDTITLE:;
#MUSIC:beam ahh remix w tana!.mp3;
#OFFSET:-0.955193;
#SAMPLESTART:45.514832;
#SAMPLELENGTH:12.000000;
#SELECTABLE:YES;
#BPMS:0.000=140.037;
#STOPS:;
#DELAYS:;
#WARPS:;
#TIMESIGNATURES:0.000=4=4;
#TICKCOUNTS:0.000=4;
#COMBOS:0.000=1;
#SPEEDS:0.000=1.000=0.000=0,
126.000=0.700=0.000=0,
157.000=1.000=0.000=0;
#SCROLLS:0.000=1.000;
#FAKES:;
#LABELS:0.000=Song Start;
#BGCHANGES:;
#KEYSOUNDS:;
#ATTACKS:
;

//---------------dance-single - Basic----------------
#NOTEDATA:;
#CHARTNAME:Basic;
#STEPSTYPE:dance-single;
#DESCRIPTION:Basic;
#CHARTSTYLE:;
#DIFFICULTY:Easy;
#METER:4;
#RADARVALUES:0.210399,0.187140,0.000000,0.013150,0.000000,224.000000,224.000000,0.000000,2.000000,0.000000,0.000000,0.000000,0.000000,0.000000,0.210399,0.187140,0.000000,0.013150,0.000000,224.000000,224.000000,0.000000,2.000000,0.000000,0.000000,0.000000,0.000000,0.000000;
#CREDIT:Basic;
#NOTES:
1000
0100
0000
1000
,
1000
0010
0010
1000
,
1000
0100
0000
0001
,
0001
1000
1000
0020
,
0000
0000
0000
0030
,
1000
0000
0010
0010
,
1000
0100
0000
1000
,
1000
0001
0001
1000
,
0001
0100
1000
0000
,
0001
0100
0001
1000
,
1000
0010
0001
0100
,
0001
1000
0001
1000
,
0001
0100
1000
0000
,
0001
1000
0001
1000
,
1000
0001
0001
0100
,
0100
0100
0001
0001
,
0001
0100
0100
0000
,
0001
0001
0001
1000
,
1000
1000
0001
0001
,
0001
0100
0100
1000
,
1000
0100
0100
0000
,
0001
0001
0001
1000
,
1000
0010
0010
0020
,
0000
0000
0000
0000
,
0000
0030
0100
0100
,
0100
0010
0010
1000
,
1000
0001
0001
0100
,
0100
0001
0001
1000
,
1000
0010
0010
1000
,
1000
0010
0010
1000
,
1000
0010
0010
1000
,
1000
0010
0000
0001
,
0001
1000
1000
0010
,
0010
1000
1000
0100
,
0100
0001
0001
0010
,
0010
0100
0100
0010
,
0010
1000
1000
0100
,
0100
0001
0001
0010
,
0010
1000
0001
1000
,
1000
0000
0001
0100
,
1000
0100
0010
0001
,
0000
0001
0000
1000
,
1000
0100
0010
0001
,
0000
0001
0000
0100
,
1000
0100
0010
0001
,
0000
0001
1000
0000
,
1000
0100
0010
0001
,
1000
0010
0100
0001
,
0001
0010
0100
0010
,
1000
0001
0000
0010
,
1000
1000
0001
0100
,
1000
0010
1000
1000
,
0001
0010
0100
0010
,
1000
0001
0010
0010
,
0001
1000
0001
0100
,
1000
0100
0100
0001
,
0001
0010
0100
0010
,
1000
0001
0000
0010
,
0001
1000
0001
0100
,
1000
0100
0000
0001
,
0001
0010
0100
0010
,
1000
0001
0000
0010
,
0001
1000
0001
0100
,
0001
1000
0000
0000
;

//---------------dance-single - Basic----------------
#NOTEDATA:;
#CHARTNAME:;
#STEPSTYPE:dance-single;
#DESCRIPTION:Basic;
#CHARTSTYLE:;
#DIFFICULTY:Beginner;
#METER:4;
#RADARVALUES:0.112714,0.103145,0.000000,0.013150,0.000000,120.000000,120.000000,0.000000,2.000000,0.000000,0.000000,0.000000,0.000000,0.000000,0.112714,0.103145,0.000000,0.013150,0.000000,120.000000,120.000000,0.000000,2.000000,0.000000,0.000000,0.000000,0.000000,0.000000;
#CREDIT:;
#NOTES:
// measure 0
0000
0100
0000
1000
,  // measure 1
0000
0010
0000
1000
,  // measure 2
0000
0100
0000
0001
,  // measure 3
0000
1000
0000
0020
,  // measure 4
0000
0000
0000
0030
,  // measure 5
0000
0001
0000
0010
,  // measure 6
0000
0100
0000
1000
,  // measure 7
0000
0001
0000
1000
,  // measure 8
0000
0100
0000
0010
,  // measure 9
0000
0100
0000
1000
,  // measure 10
0000
0010
0000
0100
,  // measure 11
0000
0010
0000
1000
,  // measure 12
0000
0100
0000
0010
,  // measure 13
0000
1000
0000
0100
,  // measure 14
0000
0001
0000
1000
,  // measure 15
0000
0100
0000
0001
,  // measure 16
0000
0100
0000
0010
,  // measure 17
0000
0001
0000
0100
,  // measure 18
0000
1000
0000
0001
,  // measure 19
0000
0100
0000
1000
,  // measure 20
0000
0100
0000
0010
,  // measure 21
0000
0001
0000
1000
,  // measure 22
0000
0100
0000
0020
,  // measure 23
0000
0000
0000
0000
,  // measure 24
0000
0030
0000
0100
,  // measure 25
0000
0010
0000
1000
,  // measure 26
0000
0001
0000
0100
,  // measure 27
0000
0001
0000
1000
,  // measure 28
0000
0010
0000
1000
,  // measure 29
0000
0010
0000
1000
,  // measure 30
0000
0010
0000
1000
,  // measure 31
0000
0010
0000
0001
,  // measure 32
0000
1000
0000
0010
,  // measure 33
0000
1000
0000
0100
,  // measure 34
0000
0001
0000
0010
,  // measure 35
0000
0100
0000
0010
,  // measure 36
0000
1000
0000
0100
,  // measure 37
0000
0001
0000
0010
,  // measure 38
0000
1000
0000
0010
,  // measure 39
0000
0000
0001
0000
,  // measure 40
1000
0000
0010
0000
,  // measure 41
0010
0000
0010
0000
,  // measure 42
1000
0000
0010
0000
,  // measure 43
0001
0000
0010
0000
,  // measure 44
1000
0000
0010
0000
,  // measure 45
0001
0000
1000
0000
,  // measure 46
1000
0000
0010
0000
,  // measure 47
1000
0000
0100
0000
,  // measure 48
0001
0000
0100
0000
,  // measure 49
1000
0000
0000
0010
,  // measure 50
0000
1000
0000
0100
,  // measure 51
0000
0010
0000
1000
,  // measure 52
0000
0100
0000
0010
,  // measure 53
0000
0001
0000
0010
,  // measure 54
0000
1000
0000
0100
,  // measure 55
0000
0100
0000
0001
,  // measure 56
0000
0100
0000
0010
,  // measure 57
0000
0001
0000
0010
,  // measure 58
0000
1000
0000
0010
,  // measure 59
0000
1000
0000
0001
,  // measure 60
0000
0100
0000
0010
,  // measure 61
0000
0001
0000
0010
,  // measure 62
0000
1000
0000
0100
;
