#VERSION:0.83;
#TITLE:Batman Beyond Opening Theme;
#SUBTITLE:;
#ARTIST:DC Comics;
#TITLETRANSLIT:;
#SUBTITLETRANSLIT:;
#ARTISTTRANSLIT:;
#GENRE:;
#ORIGIN:;
#CREDIT:;
#BANNER:;
#BACKGROUND:batman beyond-bg.png;
#PREVIEWVID:;
#JACKET:;
#CDIMAGE:;
#DISCIMAGE:;
#LYRICSPATH:;
#CDTITLE:;
#MUSIC:Batman Beyond.mp3;
#OFFSET:-2.580000;
#SAMPLESTART:30.848000;
#SAMPLELENGTH:12.000000;
#SELECTABLE:YES;
#BPMS:0.000=212.000;
#STOPS:;
#DELAYS:;
#WARPS:;
#TIMESIGNATURES:0.000=4=4;
#TICKCOUNTS:0.000=4;
#COMBOS:0.000=1;
#SPEEDS:0.000=1.000=0.000=0;
#SCROLLS:0.000=1.000;
#FAKES:;
#LABELS:0.000=Song Start;
#BGCHANGES:;
#KEYSOUNDS:;
#ATTACKS:
;

//---------------dance-single - ----------------
#NOTEDATA:;
#CHARTNAME:;
#STEPSTYPE:dance-single;
#DESCRIPTION:;
#CHARTSTYLE:;
#DIFFICULTY:Hard;
#METER:9;
#RADARVALUES:0.593700,0.729816,0.523711,0.658862,0.143598,246.000000,215.000000,31.000000,39.000000,0.000000,0.000000,0.000000,0.000000,0.000000,0.593700,0.729816,0.523711,0.658862,0.143598,246.000000,215.000000,31.000000,39.000000,0.000000,0.000000,0.000000,0.000000,0.000000;
#CREDIT:;
#NOTES:
// measure 0
0001
1000
0000
0000
1000
0001
0000
0000
0000
0010
0100
0000
0000
0000
0000
0000
,  // measure 1
1000
0000
0100
0000
1000
0000
1001
0000
0000
0000
0000
0000
0001
1000
0000
0000
,  // measure 2
0001
1000
0000
0000
0000
0010
0100
0000
0000
0000
0000
0000
0001
0000
1000
0000
,  // measure 3
0100
0010
0001
1001
0000
0000
1100
0000
,  // measure 4
1001
0101
0110
1200
,  // measure 5
0010
0010
0010
0010
0310
0000
2010
0000
,  // measure 6
0010
0000
0010
0000
0010
0000
0010
0010
,  // measure 7
0010
0010
3010
1000
2001
0000
0001
0000
,  // measure 8
0001
0001
0001
0001
,  // measure 9
0001
0001
0001
0001
3001
0100
1000
0000
,  // measure 10
1100
0001
0101
1000
,  // measure 11
1100
0000
0100
0000
0001
0100
1000
0001
,  // measure 12
0100
0010
1001
0000
1000
0100
0001
0100
,  // measure 13
1000
0010
1001
0000
0200
0000
0010
0010
,  // measure 14
0010
0320
0230
0010
,  // measure 15
0010
0010
0010
0000
0320
0000
0100
0000
,  // measure 16
1000
1000
1000
0000
2030
0000
0001
0000
,  // measure 17
0001
0001
0001
0000
3002
0000
1000
0000
,  // measure 18
0100
0100
0100
0000
0203
0000
0001
0000
,  // measure 19
0010
0010
0310
0000
1200
0000
0001
0000
,  // measure 20
0001
0001
0001
0000
0302
0000
0010
0000
,  // measure 21
1000
1000
1000
0000
1003
0100
0010
0001
,  // measure 22
0100
0001
1100
0000
0200
0000
1000
0000
,  // measure 23
0010
0010
0010
0000
0320
0000
1000
0000
,  // measure 24
1000
1000
1000
0000
2030
0000
0100
0000
,  // measure 25
0001
0001
0001
0000
3002
0000
0010
0000
,  // measure 26
1000
1000
1000
0000
2003
0000
0001
0001
,  // measure 27
0001
0000
0001
0001
3001
0001
1000
0010
,  // measure 28
0001
2002
0000
0000
0000
0000
0000
0000
,  // measure 29
0000
0000
3003
0000
0110
0000
0000
0000
0110
0000
0000
0000
1000
0100
0010
0001
,  // measure 30
1000
0100
0010
0001
0020
0200
0000
0000
0000
0000
0000
0000
0000
0000
0330
0000
,  // measure 31
0000
0100
0010
0001
0202
0000
0000
0000
,  // measure 32
0000
0303
0110
0110
,  // measure 33
1000
0100
0001
0100
1000
0010
0001
0010
1000
0100
0002
0200
0000
0000
0000
0000
,  // measure 34
0000
0000
0303
0000
1200
1000
1300
0000
,  // measure 35
2001
0001
3001
0000
0102
0100
0103
0000
,  // measure 36
0210
0010
0310
0000
1020
1000
1030
0000
,  // measure 37
0102
0100
0103
0000
1200
1000
1000
0000
,  // measure 38
0010
0010
0010
0000
0320
0000
0000
0000
,  // measure 39
0000
0000
0000
0100
,  // measure 40
0230
0000
0000
0000
,  // measure 41
0000
0000
0000
1000
,  // measure 42
2300
0000
0000
0000
,  // measure 43
0000
0000
0000
0000
,  // measure 44
0000
3000
2002
0000
,  // measure 45
0000
0000
0000
0000
,  // measure 46
0000
0000
0000
3003
,  // measure 47
0220
0000
0000
0000
,  // measure 48
0330
0000
0000
0000
;

//---------------dance-single - ----------------
#NOTEDATA:;
#CHARTNAME:;
#STEPSTYPE:dance-single;
#DESCRIPTION:;
#CHARTSTYLE:;
#DIFFICULTY:Medium;
#METER:1;
#RADARVALUES:0.000000,0.000000,0.000000,0.000000,0.000000,0.000000,0.000000,0.000000,0.000000,0.000000,0.000000,0.000000,0.000000,0.000000,0.000000,0.000000,0.000000,0.000000,0.000000,0.000000,0.000000,0.000000,0.000000,0.000000,0.000000,0.000000,0.000000,0.000000;
#CREDIT:;
#NOTES:
;

//---------------dance-single - ----------------
#NOTEDATA:;
#CHARTNAME:;
#STEPSTYPE:dance-single;
#DESCRIPTION:;
#CHARTSTYLE:;
#DIFFICULTY:Easy;
#METER:1;
#RADARVALUES:0.168939,0.342101,0.000000,0.422347,0.000000,70.000000,70.000000,0.000000,25.000000,0.000000,0.000000,0.000000,0.000000,0.000000,0.168939,0.342101,0.000000,0.422347,0.000000,70.000000,70.000000,0.000000,25.000000,0.000000,0.000000,0.000000,0.000000,0.000000;
#CREDIT:;
#NOTES:
// measure 0
1000
0000
0010
0000
,  // measure 1
0100
0000
0001
0000
,  // measure 2
0100
0000
0010
0000
,  // measure 3
1000
0000
0000
0000
0010
0000
0000
0001
,  // measure 4
0000
0000
0000
0100
0000
0000
0000
0010
,  // measure 5
0000
0000
0000
1000
0000
0000
0000
0001
,  // measure 6
0000
0000
0000
0010
0000
0000
0000
0100
,  // measure 7
0000
0000
0000
0001
0000
0000
0000
0010
,  // measure 8
0000
0000
0000
0100
0000
0000
0000
1000
,  // measure 9
0000
0000
0000
0010
0000
0000
0000
0001
,  // measure 10
0000
0000
0000
0100
0000
0000
0000
0010
,  // measure 11
0000
0000
0000
0001
0000
0000
2000
0000
,  // measure 12
0000
0000
3000
0020
,  // measure 13
0000
0030
0200
0000
,  // measure 14
0000
0300
0002
0000
,  // measure 15
0000
0003
2000
0000
,  // measure 16
0000
3000
0020
0000
,  // measure 17
0000
0030
0200
0000
,  // measure 18
0000
0300
0002
0000
,  // measure 19
0000
0000
0003
2000
,  // measure 20
0000
0000
3000
0020
,  // measure 21
0000
0000
0030
0200
,  // measure 22
0000
0000
0000
0000
,  // measure 23
0000
0300
0002
0000
,  // measure 24
0000
0003
0000
2000
,  // measure 25
0000
0000
3000
0020
,  // measure 26
0000
0000
0000
0030
,  // measure 27
0000
0000
1000
0010
,  // measure 28
0100
0001
0010
1000
,  // measure 29
0100
0010
0100
1000
,  // measure 30
2000
0000
3000
1000
,  // measure 31
0000
0000
0010
0100
,  // measure 32
0001
0010
0100
0001
,  // measure 33
0010
1000
0020
0000
,  // measure 34
0000
0030
0100
0000
,  // measure 35
1000
2000
0000
0000
,  // measure 36
0000
3000
0020
0000
,  // measure 37
0000
0030
2000
0000
,  // measure 38
0000
3000
0002
0000
,  // measure 39
0000
0003
0020
0000
,  // measure 40
0000
0000
0000
2030
,  // measure 41
0000
3000
0020
0000
,  // measure 42
0000
0030
0200
0000
,  // measure 43
0000
0300
0000
0200
,  // measure 44
0000
0000
0000
0000
,  // measure 45
0300
0000
0000
0000
;
