#TITLE:Bartender;
#SUBTITLE:;
#ARTIST:Dancing Monkeys Project;
#TITLETRANSLIT:;
#SUBTITLETRANSLIT:;
#ARTISTTRANSLIT:;
#GENRE:;
#CREDIT:Gorilla v1.1.3 (Dancing Monkeys v1.06);
#BANNER:;
#BACKGROUND:;
#LYRICSPATH:;
#CDTITLE:;
#MUSIC:Bartender.mp3;
#OFFSET:-0.383129;
#SAMPLESTART:59.799911;
#SAMPLELENGTH:12.000000;
#SELECTABLE:YES;
#BPMS:0.000000=105.020836
;
#STOPS:
;
#BGCHANGES:;
#KEYSOUNDS:;
#ATTACKS:;

//---------------dance-single - Basic----------------
#NOTES:
     dance-single:
     Basic:
     Easy:
     3:
     0.077637,0.077334,0.000000,0.024262,0.000000,112.000000,112.000000,0.000000,5.000000,0.000000,0.000000,0.077637,0.077334,0.000000,0.024262,0.000000,112.000000,112.000000,0.000000,5.000000,0.000000,0.000000:
// measure 0
2000
0000
0000
0000
,  // measure 1
0000
3000
0000
0020
,  // measure 2
0000
0000
0000
0000
,  // measure 3
0030
0000
0000
2000
,  // measure 4
0000
0000
0000
0000
,  // measure 5
3000
0000
0000
0200
,  // measure 6
0000
0000
0000
0000
,  // measure 7
0300
0000
0000
0000
,  // measure 8
0100
0000
0010
0000
,  // measure 9
0001
0000
0001
0000
,  // measure 10
0010
0000
0001
0000
,  // measure 11
0010
0000
0001
0000
,  // measure 12
0010
0000
0001
0000
,  // measure 13
0100
0000
0001
0000
,  // measure 14
0010
0000
0001
0000
,  // measure 15
0100
0000
1000
0000
,  // measure 16
0010
0000
0001
0000
,  // measure 17
0010
0000
1000
0000
,  // measure 18
0001
0000
1000
0000
,  // measure 19
0010
0000
0001
0000
,  // measure 20
0010
0000
1000
0000
,  // measure 21
0100
0000
0001
0000
,  // measure 22
0010
0000
0001
0000
,  // measure 23
0000
0000
0010
0000
,  // measure 24
0100
0000
0010
0000
,  // measure 25
0100
0000
0100
0000
,  // measure 26
0001
0000
0100
0000
,  // measure 27
1000
0000
1000
0000
,  // measure 28
0001
0000
0100
0000
,  // measure 29
1000
0000
1000
0000
,  // measure 30
0001
0000
0100
0000
,  // measure 31
1000
0000
1000
0000
,  // measure 32
0001
0000
0001
0000
,  // measure 33
0100
0000
0100
0000
,  // measure 34
0010
0000
0001
0000
,  // measure 35
1000
0000
1000
0000
,  // measure 36
0010
0000
0001
0000
,  // measure 37
0010
0000
1000
0000
,  // measure 38
0010
0000
0001
0000
,  // measure 39
0010
0000
0100
0000
,  // measure 40
0010
0000
1000
0000
,  // measure 41
1000
0000
0010
0000
,  // measure 42
0100
0000
0001
0000
,  // measure 43
0010
0000
1000
0000
,  // measure 44
0010
0000
0001
0000
,  // measure 45
0010
0000
0001
0000
,  // measure 46
0100
0000
0010
0000
,  // measure 47
0000
0000
0000
0000
,  // measure 48
0010
0000
0001
0000
,  // measure 49
1000
0000
0100
0000
,  // measure 50
0010
0000
1000
0000
,  // measure 51
1000
0000
1000
0000
,  // measure 52
0001
0000
0001
0000
,  // measure 53
1000
0000
1000
0000
,  // measure 54
0001
0000
1000
0000
,  // measure 55
0100
0000
0001
0000
,  // measure 56
0010
0000
1000
0000
,  // measure 57
0100
0000
0100
0000
,  // measure 58
0001
0000
0100
0000
,  // measure 59
0001
0000
0100
0000
,  // measure 60
0001
0000
0100
0000
,  // measure 61
1000
0000
1000
0000
,  // measure 62
0001
0000
1000
2000
,  // measure 63
0000
0000
0000
3000
;
