#VERSION:0.83;
#TITLE:Barbie World (N.M & Ice Spice);
#SUBTITLE:;
#ARTIST:Dancing Monkeys Project;
#TITLETRANSLIT:;
#SUBTITLETRANSLIT:;
#ARTISTTRANSLIT:;
#GENRE:;
#ORIGIN:;
#CREDIT:Gorilla v1.1.3 (Dancing Monkeys v1.06);
#BANNER:download.png;
#BACKGROUND:artworks-y2nR6gsTLvoy1rfq-HWRACw-t500x500.png;
#PREVIEWVID:;
#JACKET:;
#CDIMAGE:;
#DISCIMAGE:;
#LYRICSPATH:;
#CDTITLE:;
#MUSIC:Nicki Minaj & Ice Spice - Barbie World (Lyrics).mp3;
#OFFSET:-1.864921;
#SAMPLESTART:43.538387;
#SAMPLELENGTH:12.000000;
#SELECTABLE:YES;
#BPMS:0.000=143.977;
#STOPS:;
#DELAYS:;
#WARPS:;
#TIMESIGNATURES:0.000=4=4;
#TICKCOUNTS:0.000=4;
#COMBOS:0.000=1;
#SPEEDS:0.000=0.800=0.000=0;
#SCROLLS:0.000=1.000;
#FAKES:;
#LABELS:0.000=Song Start;
#BGCHANGES:;
#KEYSOUNDS:;
#ATTACKS:
;

//---------------dance-single - Basic----------------
#NOTEDATA:;
#CHARTNAME:Basic;
#STEPSTYPE:dance-single;
#DESCRIPTION:Basic;
#CHARTSTYLE:;
#DIFFICULTY:Easy;
#METER:4;
#RADARVALUES:0.145429,0.127813,0.000000,0.000000,0.000000,113.000000,113.000000,0.000000,0.000000,0.000000,0.000000,0.000000,0.000000,0.000000,0.145429,0.127813,0.000000,0.000000,0.000000,113.000000,113.000000,0.000000,0.000000,0.000000,0.000000,0.000000,0.000000,0.000000;
#CREDIT:Basic;
#NOTES:
// measure 0
0000
0000
0000
0010
,  // measure 1
0000
1000
0000
0010
,  // measure 2
0000
0001
0000
1000
,  // measure 3
0000
0100
0000
0100
,  // measure 4
0000
0100
0000
1000
,  // measure 5
0000
0001
0000
0010
,  // measure 6
0000
0001
0000
1000
,  // measure 7
0000
0001
0000
0100
,  // measure 8
0000
0010
0000
0001
,  // measure 9
0000
0010
0000
0001
,  // measure 10
0000
0010
0000
1000
,  // measure 11
0000
0010
0000
0001
,  // measure 12
0000
0010
0000
0001
,  // measure 13
0000
0010
0000
0100
,  // measure 14
0000
0001
0000
0100
,  // measure 15
0000
1000
0000
0001
,  // measure 16
0000
0100
0000
0010
,  // measure 17
0000
0001
0000
0010
,  // measure 18
0000
0100
0000
0010
,  // measure 19
0000
0100
0000
0001
,  // measure 20
0000
0010
0000
0001
,  // measure 21
0000
0010
0000
1000
,  // measure 22
0000
0100
0000
0001
,  // measure 23
0000
1000
0000
0010
,  // measure 24
0000
0100
0000
0010
,  // measure 25
0000
0100
0000
0010
,  // measure 26
0000
0100
0000
1000
,  // measure 27
0000
0010
0000
1000
,  // measure 28
0000
0010
0000
0100
,  // measure 29
0000
0001
0000
0010
,  // measure 30
0000
1000
0000
0001
,  // measure 31
0000
1000
0000
0010
,  // measure 32
0000
0100
0000
1000
,  // measure 33
0000
0010
0000
0001
,  // measure 34
0000
0001
0000
0100
,  // measure 35
0000
1000
0000
0001
,  // measure 36
0000
0100
0000
1000
,  // measure 37
0000
0100
0000
0100
,  // measure 38
0000
1000
0000
0100
,  // measure 39
0000
1000
0000
0001
,  // measure 40
0000
0100
0000
0001
,  // measure 41
0000
0010
0000
0100
,  // measure 42
0000
0010
0000
0100
,  // measure 43
0000
0100
0000
0010
,  // measure 44
0000
0010
0000
0001
,  // measure 45
0000
0100
0000
0010
,  // measure 46
0000
0100
0000
0100
,  // measure 47
0000
0010
0000
0100
,  // measure 48
0000
0001
0000
0100
,  // measure 49
0000
0001
0000
0100
,  // measure 50
0000
0010
0000
0100
,  // measure 51
0000
1000
0000
0001
,  // measure 52
0000
0100
0000
0010
,  // measure 53
0000
0001
0000
0010
,  // measure 54
0000
1000
0000
0100
,  // measure 55
0000
1000
0000
0010
,  // measure 56
0000
0001
0000
1000
;

//---------------dance-single - Basic----------------
#NOTEDATA:;
#CHARTNAME:;
#STEPSTYPE:dance-single;
#DESCRIPTION:Basic;
#CHARTSTYLE:;
#DIFFICULTY:Beginner;
#METER:4;
#RADARVALUES:0.142855,0.127250,0.000000,0.000000,0.000000,111.000000,111.000000,0.000000,0.000000,0.000000,0.000000,0.000000,0.000000,0.000000,0.142855,0.127250,0.000000,0.000000,0.000000,111.000000,111.000000,0.000000,0.000000,0.000000,0.000000,0.000000,0.000000,0.000000;
#CREDIT:;
#NOTES:
0000
0000
0000
0010
,
0000
0010
0000
1000
,
0000
0100
0100
0000
,
0010
0000
0010
0000
,
1000
0000
0010
0000
,
0100
0000
0100
0000
,
0100
0000
0100
0000
,
0100
0000
0010
0000
,
1000
0000
1000
0000
,
0100
0000
1000
0000
,
0100
0000
0100
0000
,
0010
0000
0100
0000
,
1000
0000
1000
0000
,
0100
0000
0001
0000
,
1000
0000
0010
0000
,
0001
0000
0100
0000
,
0100
0000
0100
0000
,
1000
0000
1000
0000
,
1000
0000
1000
0000
,
1000
0000
0001
0000
,
0100
0000
1000
0000
,
1000
0000
0010
0000
,
1000
0000
0001
0000
,
0100
0000
0010
0000
,
0001
0000
0010
0000
,
1000
0000
1000
0000
,
0001
0000
1000
0000
,
1000
0000
0001
0000
,
0010
0000
1000
0000
,
1000
0000
1000
0000
,
0001
0000
0010
0000
,
0000
1000
0000
0000
,
1000
0000
0001
1000
,
0000
0010
0000
0001
,
0000
0001
0000
0100
,
0000
1000
0000
0100
,
0000
0100
0000
1000
,
0000
0010
0000
0100
,
0000
1000
0000
0100
,
0000
1000
0000
0001
,
0000
0100
0000
0001
,
0000
0100
0000
0001
,
0000
0010
0000
0100
,
0000
0010
0000
0100
,
0000
0010
0000
1000
,
0000
0100
0000
0010
,
0000
0100
0000
0001
,
0000
0010
0000
0100
,
0000
0001
0000
0100
,
0000
0001
0000
0000
,
1000
0000
0001
0000
,
0001
0000
0010
0000
,
1000
0000
0000
1000
,
0000
0001
0000
0000
,
1000
0000
0010
0000
,
0001
0000
0100
0000
,
1000
0000
0010
0000
;
