#TITLE:Banjo-Kazooie Theme Song;
#SUBTITLE:(Requested by FiGGiEs);
#ARTIST:Rareware;
#TITLETRANSLIT:;
#SUBTITLETRANSLIT:;
#ARTISTTRANSLIT:;
#GENRE:;
#CREDIT:Happy Feet;
#BANNER:;
#BACKGROUND:;
#LYRICSPATH:;
#CDTITLE:;
#MUSIC:Banjo-Kazooie Theme Song.ogg;
#OFFSET:1.570000;
#SAMPLESTART:0.040000;
#SAMPLELENGTH:29.000000;
#LASTBEATHINT:1.425950;
#SELECTABLE:YES;
#BPMS:0.000000=150.100006
;
#STOPS:
;
#BGCHANGES:;
#KEYSOUNDS:;
#ATTACKS:;

//---------------dance-single - Happy Feet----------------
#NOTES:
     dance-single:
     :
     Easy:
     10:
     0.316575,0.277197,0.000000,0.015497,0.000000,143.000000,143.000000,0.000000,1.000000,0.000000,0.000000,0.316575,0.277197,0.000000,0.015497,0.000000,143.000000,143.000000,0.000000,1.000000,0.000000,0.000000:
// measure 0
0000
0000
0000
0000
,  // measure 1
0001
0001
0000
0000
,  // measure 2
1000
1000
0000
0000
,  // measure 3
0000
0000
0000
0000
,  // measure 4
0000
0000
0000
0000
,  // measure 5
0000
0100
0100
0100
,  // measure 6
1000
1000
1000
1000
,  // measure 7
1000
1000
1000
1000
,  // measure 8
1000
1000
0001
1000
,  // measure 9
0010
1000
0010
0001
,  // measure 10
1000
0001
0001
0001
,  // measure 11
0001
0001
0001
0001
,  // measure 12
0001
0100
1000
0001
,  // measure 13
0010
0001
0100
0010
,  // measure 14
0010
1000
0010
1000
,  // measure 15
1000
0001
0010
0100
,  // measure 16
0010
0100
1000
0100
,  // measure 17
0010
1000
0100
1000
,  // measure 18
1000
0001
0010
0100
,  // measure 19
0001
0000
0000
0000
0000
0000
0000
0000
0000
0000
0000
0000
0000
0000
0000
0000
1000
0000
0000
0000
0000
0000
0000
0000
0000
0000
0000
0000
0000
0000
0000
0000
1000
0000
0000
0000
0000
0000
0000
0000
0000
0000
0000
0000
0000
0000
0000
0000
0200
0300
0000
0000
0000
0000
0000
0000
0000
0000
0000
0000
0000
0000
0000
0000
,  // measure 20
1000
1000
1000
0001
,  // measure 21
0100
0010
0100
0010
,  // measure 22
0100
1000
0010
0010
,  // measure 23
1000
0010
1000
0100
,  // measure 24
1000
0010
0001
1000
,  // measure 25
0001
0100
0001
0010
,  // measure 26
0001
0100
0001
0010
,  // measure 27
0001
0100
0001
0010
,  // measure 28
0001
0100
0010
0100
,  // measure 29
0010
0001
0010
1000
,  // measure 30
0001
0010
0010
0100
,  // measure 31
0001
0010
0001
0001
,  // measure 32
0010
1000
0010
0100
,  // measure 33
0010
0001
1000
0010
,  // measure 34
0100
0001
0100
0010
,  // measure 35
0100
1000
0100
1000
,  // measure 36
1000
0010
0010
0100
,  // measure 37
0100
0001
0001
0010
,  // measure 38
0100
0100
0010
0010
,  // measure 39
0100
1000
0100
0010
;
