#TITLE:Bad Boy ;
#SUBTITLE:;
#ARTIST:American Dad (Steve Smith);
#TITLETRANSLIT:;
#SUBTITLETRANSLIT:;
#ARTISTTRANSLIT:;
#GENRE:;
#CREDIT:Gorilla v1.1.3 (Dancing Monkeys v1.06);
#BANNER:hq720.png;
#BACKGROUND:hqdefault.png;
#LYRICSPATH:;
#CDTITLE:;
#MUSIC:Bad Boy - Steve Smith ft. Kids (Lyrics).mp3;
#OFFSET:-0.136190;
#SAMPLESTART:55.709888;
#SAMPLELENGTH:12.000000;
#SELECTABLE:YES;
#BPMS:0.000000=107.964745
;
#STOPS:
;
#BGCHANGES:;
#KEYSOUNDS:;
#ATTACKS:;

//---------------dance-single - Basic----------------
#NOTES:
     dance-single:
     Basic:
     Easy:
     3:
     0.123259,0.111937,0.000000,0.013073,0.000000,66.000000,66.000000,0.000000,1.000000,0.000000,0.000000,0.123259,0.111937,0.000000,0.013073,0.000000,66.000000,66.000000,0.000000,1.000000,0.000000,0.000000:
// measure 0
0100
0000
0001
0000
,  // measure 1
0010
0010
0000
0000
,  // measure 2
1000
0000
0001
0000
,  // measure 3
1000
0000
0010
0000
,  // measure 4
0001
0000
1000
0000
,  // measure 5
0001
0000
0010
0000
,  // measure 6
1000
0000
0010
0000
,  // measure 7
0100
0000
0100
0000
,  // measure 8
0001
0000
0010
0000
,  // measure 9
0100
0000
0001
0000
,  // measure 10
0100
0000
1000
2000
,  // measure 11
0000
0000
0000
3000
,  // measure 12
0000
0001
0000
0010
,  // measure 13
0000
1000
0000
0010
,  // measure 14
0000
0001
0000
0010
,  // measure 15
0000
1000
0000
0100
,  // measure 16
0000
1000
0000
0010
,  // measure 17
0000
1000
0000
0100
,  // measure 18
0000
0001
0000
0010
,  // measure 19
0000
1000
0000
0100
,  // measure 20
0000
0001
0000
0100
,  // measure 21
0000
0001
0000
0100
,  // measure 22
0000
0010
0000
0100
,  // measure 23
0000
1000
0000
0100
,  // measure 24
0000
0001
0000
0010
,  // measure 25
0000
0100
0000
1000
,  // measure 26
0000
0100
0000
0001
,  // measure 27
0000
1000
0000
1000
,  // measure 28
0000
0100
0000
1000
,  // measure 29
0000
0010
0000
1000
,  // measure 30
0000
0100
0000
1000
,  // measure 31
0000
0001
0000
0001
,  // measure 32
0000
0000
0000
0100
,  // measure 33
0000
0000
1000
0000
,  // measure 34
0000
1000
0000
0000
;
