#TITLE:Back To The Lab Again ( Dexter's Lab);
#SUBTITLE:;
#ARTIST:Cartoonnetwork;
#TITLETRANSLIT:;
#SUBTITLETRANSLIT:;
#ARTISTTRANSLIT:;
#GENRE:;
#CREDIT:Gorilla v1.1.3 (Dancing Monkeys v1.06);
#BANNER:;
#BACKGROUND:;
#LYRICSPATH:;
#CDTITLE:;
#MUSIC:Cartoon Network Greatest Hits_ Vol. 1 - 05 Back To The Lab (Dexter's Laboratory).mp3;
#OFFSET:-0.296440;
#SAMPLESTART:39.447819;
#SAMPLELENGTH:12.000000;
#SELECTABLE:YES;
#BPMS:0.000000=136.779999
;
#STOPS:
;
#BGCHANGES:;
#KEYSOUNDS:;
#ATTACKS:;

//---------------dance-single - Basic----------------
#NOTES:
     dance-single:
     Basic:
     Easy:
     3:
     0.111721,0.098743,0.000000,0.000000,0.000000,99.000000,99.000000,0.000000,0.000000,0.000000,0.000000,0.111721,0.098743,0.000000,0.000000,0.000000,99.000000,99.000000,0.000000,0.000000,0.000000,0.000000:
// measure 0
0001
0000
0000
0000
,  // measure 1
1000
0000
1000
0000
,  // measure 2
0000
0001
0000
0000
,  // measure 3
0001
0001
0000
0001
,  // measure 4
0000
0001
0000
0000
,  // measure 5
1000
0000
0010
0000
,  // measure 6
1000
0000
0010
0000
,  // measure 7
1000
0000
0010
0000
,  // measure 8
1000
0000
0010
0000
,  // measure 9
1000
0000
0001
0000
,  // measure 10
0010
0000
0100
0000
,  // measure 11
1000
0000
0001
0000
,  // measure 12
0010
0000
1000
0000
,  // measure 13
0010
0000
0001
0000
,  // measure 14
0001
0000
0100
0000
,  // measure 15
1000
0000
0001
0000
,  // measure 16
0010
0000
1000
0000
,  // measure 17
0010
0000
0001
0000
,  // measure 18
0010
0000
1000
0000
,  // measure 19
0010
0000
0001
0000
,  // measure 20
0010
0000
1000
0000
,  // measure 21
0001
0000
1000
0000
,  // measure 22
0010
0000
0001
0000
,  // measure 23
1000
0000
0001
0000
,  // measure 24
0010
0000
1000
0000
,  // measure 25
0010
0000
0001
0000
,  // measure 26
1000
0000
0010
0000
,  // measure 27
1000
0000
0001
0000
,  // measure 28
0001
0000
0010
0000
,  // measure 29
0001
0000
0100
0000
,  // measure 30
1000
0000
0001
0000
,  // measure 31
0010
0000
1000
0000
,  // measure 32
0010
0000
0001
0000
,  // measure 33
1000
0000
0010
0000
,  // measure 34
0010
0000
0001
0000
,  // measure 35
0010
0000
1000
0000
,  // measure 36
0001
0000
1000
0000
,  // measure 37
0001
0000
0100
0000
,  // measure 38
1000
0000
0001
0000
,  // measure 39
0010
0000
1000
0000
,  // measure 40
1000
1000
0000
0010
,  // measure 41
0000
0010
0000
0001
,  // measure 42
0000
0001
0000
1000
,  // measure 43
0000
1000
0000
0001
,  // measure 44
0000
0001
0000
0010
,  // measure 45
0000
1000
0000
0001
,  // measure 46
0000
0001
0000
0000
,  // measure 47
1000
0000
0010
0000
,  // measure 48
1000
0000
0001
0000
,  // measure 49
0010
0000
1000
0000
,  // measure 50
1000
0000
0000
0000
;
