#VERSION:0.83;
#TITLE:BLA BLA BLA;
#SUBTITLE:;
#ARTIST:GIGI D'AGOSTINO;
#TITLETRANSLIT:;
#SUBTITLETRANSLIT:;
#ARTISTTRANSLIT:;
#GENRE:;
#ORIGIN:;
#CREDIT:DDR;
#BANNER:;
#BACKGROUND:;
#PREVIEWVID:;
#JACKET:;
#CDIMAGE:;
#DISCIMAGE:;
#LYRICSPATH:;
#CDTITLE:;
#MUSIC:GIGI D'AGOSTINO - BLA BLA BLA ( OFFICIAL VIDEO ).mp3;
#OFFSET:-0.126213;
#SAMPLESTART:45.269070;
#SAMPLELENGTH:12.000000;
#SELECTABLE:YES;
#BPMS:0.000=132.911;
#STOPS:;
#DELAYS:;
#WARPS:;
#TIMESIGNATURES:0.000=4=4;
#TICKCOUNTS:0.000=4;
#COMBOS:0.000=1;
#SPEEDS:0.000=1.000=0.000=0;
#SCROLLS:0.000=1.000;
#FAKES:;
#LABELS:0.000=Song Start;
#BGCHANGES:;
#KEYSOUNDS:;
#ATTACKS:
;

//---------------dance-single - Basic----------------
#NOTEDATA:;
#CHARTNAME:Basic;
#STEPSTYPE:dance-single;
#DESCRIPTION:Basic;
#CHARTSTYLE:;
#DIFFICULTY:Easy;
#METER:4;
#RADARVALUES:0.212674,0.279980,0.020821,0.000000,0.000000,286.000000,282.000000,4.000000,0.000000,0.000000,0.000000,0.000000,0.000000,0.000000,0.212674,0.279980,0.020821,0.000000,0.000000,286.000000,282.000000,4.000000,0.000000,0.000000,0.000000,0.000000,0.000000,0.000000;
#CREDIT:Basic;
#NOTES:
// measure 0
0001
0000
1000
0000
,  // measure 1
0010
0000
0010
0000
,  // measure 2
1000
1000
1000
0001
,  // measure 3
0001
0001
0001
0010
,  // measure 4
0010
0010
0010
0100
,  // measure 5
0100
0100
0100
0001
,  // measure 6
0001
0001
0001
0100
,  // measure 7
0100
0100
0100
1000
,  // measure 8
1000
1000
1000
0100
,  // measure 9
0100
0100
0100
0010
,  // measure 10
0010
0010
0010
1000
,  // measure 11
1000
1000
1000
0001
,  // measure 12
0001
0001
0001
0100
,  // measure 13
0100
0100
0100
0010
,  // measure 14
0010
0010
0010
0100
,  // measure 15
0100
0100
0100
1000
,  // measure 16
1000
1000
1000
0100
,  // measure 17
0100
0100
1000
1000
,  // measure 18
0010
0010
0010
0001
,  // measure 19
0001
0001
0001
0010
,  // measure 20
0010
0010
1000
1000
,  // measure 21
0010
0000
0001
0000
,  // measure 22
1000
0000
0010
0000
,  // measure 23
0001
0000
1000
0000
,  // measure 24
0010
0000
0001
0000
,  // measure 25
1000
0000
0001
0000
,  // measure 26
1000
0000
0010
0000
,  // measure 27
1000
1000
1000
0010
,  // measure 28
0010
0010
0010
1000
,  // measure 29
1000
1000
1000
0001
,  // measure 30
0001
0000
0000
0000
,  // measure 31
0010
0000
0010
0000
,  // measure 32
1000
0000
1000
0000
,  // measure 33
0010
0000
0010
0000
,  // measure 34
1000
0000
1000
0000
,  // measure 35
0001
0000
0001
0000
,  // measure 36
1000
0000
1000
0000
,  // measure 37
0001
0000
0001
0000
,  // measure 38
0010
0000
0010
0000
,  // measure 39
1000
0000
1000
0000
,  // measure 40
0100
0000
0100
0000
,  // measure 41
0001
0000
0001
0000
,  // measure 42
0010
0000
1000
0000
,  // measure 43
0001
0001
0010
0010
,  // measure 44
1000
1000
0001
0001
,  // measure 45
1000
1000
0010
0010
,  // measure 46
0001
0001
1000
1000
,  // measure 47
0100
0100
0001
0001
,  // measure 48
0010
0010
0100
0100
,  // measure 49
1000
1000
0010
0010
,  // measure 50
0001
0001
0010
0010
,  // measure 51
0001
0001
1000
1000
,  // measure 52
0010
0010
0001
0001
,  // measure 53
1000
1000
0010
0010
,  // measure 54
0010
0000
0000
0000
,  // measure 55
1000
1000
1000
0100
,  // measure 56
0100
0100
0100
0001
,  // measure 57
0001
0001
0001
0010
,  // measure 58
0010
0000
0000
0000
,  // measure 59
1000
1000
1000
1000
,  // measure 60
0001
0001
0001
0001
,  // measure 61
0010
0010
0010
0010
,  // measure 62
0100
0100
0100
0100
,  // measure 63
0001
0001
0001
0001
,  // measure 64
0100
0100
0100
0100
,  // measure 65
1000
1000
1000
1000
,  // measure 66
0010
0010
0010
0010
,  // measure 67
0000
1000
1000
1000
,  // measure 68
0001
0001
0001
1000
,  // measure 69
1000
1000
0001
0001
,  // measure 70
0001
1000
1000
1000
,  // measure 71
0010
0010
0010
0010
,  // measure 72
1000
1000
1000
1000
,  // measure 73
0010
0010
0010
0010
,  // measure 74
0001
0001
0001
0001
,  // measure 75
0100
0100
0100
0100
,  // measure 76
1000
1000
1000
1000
,  // measure 77
0010
0010
0010
0010
,  // measure 78
0001
0001
0001
0001
,  // measure 79
0100
0100
0100
0100
,  // measure 80
0001
0001
0001
0001
,  // measure 81
0100
0100
0100
0100
,  // measure 82
1001
1001
1001
1001
;

//---------------dance-single - Basic----------------
#NOTEDATA:;
#CHARTNAME:;
#STEPSTYPE:dance-single;
#DESCRIPTION:Basic;
#CHARTSTYLE:;
#DIFFICULTY:Medium;
#METER:4;
#RADARVALUES:0.266957,0.301517,0.234238,0.072874,0.000000,359.000000,314.000000,45.000000,14.000000,0.000000,0.000000,0.000000,0.000000,0.000000,0.266957,0.301517,0.234238,0.072874,0.000000,359.000000,314.000000,45.000000,14.000000,0.000000,0.000000,0.000000,0.000000,0.000000;
#CREDIT:;
#NOTES:
// measure 0
1000
1000
1000
0001
,  // measure 1
0010
0010
0010
0100
,  // measure 2
1001
1001
0010
0100
,  // measure 3
0101
1000
1000
0010
,  // measure 4
0011
0001
1000
0100
,  // measure 5
0100
0100
1001
0100
,  // measure 6
0010
0100
1000
0100
,  // measure 7
1010
0010
0001
0100
,  // measure 8
0010
0010
1001
0100
,  // measure 9
0100
0100
1001
0010
,  // measure 10
1001
0100
0100
0100
,  // measure 11
1010
0010
0010
1001
,  // measure 12
0010
0010
1000
0100
,  // measure 13
0100
0100
1001
0010
,  // measure 14
1010
0010
0001
0100
,  // measure 15
0010
0010
1000
0100
,  // measure 16
0001
0001
1000
0100
,  // measure 17
0100
0100
1000
1000
,  // measure 18
0110
1000
1000
0100
,  // measure 19
0010
0010
0001
0100
,  // measure 20
1001
1001
0010
0100
,  // measure 21
2000
0000
3002
0000
,  // measure 22
2003
0000
3020
0000
,  // measure 23
0032
0000
2003
0000
,  // measure 24
3020
0000
0032
0000
,  // measure 25
2003
0000
3002
0000
,  // measure 26
2003
0000
3020
0000
,  // measure 27
1030
1000
1001
0100
,  // measure 28
0010
0010
1001
0100
,  // measure 29
0010
0010
0011
0010
,  // measure 30
2000
0000
0000
3000
,  // measure 31
0010
0010
0010
0010
,  // measure 32
1000
1000
1000
1000
,  // measure 33
0010
0010
0010
0010
,  // measure 34
1000
1000
1000
1000
,  // measure 35
0001
0001
0001
0001
,  // measure 36
1000
1000
1000
1000
,  // measure 37
0001
0001
0001
0001
,  // measure 38
0010
0010
0010
0010
,  // measure 39
1000
1000
1000
1000
,  // measure 40
0100
0100
0100
0100
,  // measure 41
0001
0001
0001
0001
,  // measure 42
0010
0010
0010
0010
,  // measure 43
0010
1001
0010
1001
,  // measure 44
0100
1001
0100
1001
,  // measure 45
0100
1001
0010
1001
,  // measure 46
0010
1001
0100
1001
,  // measure 47
0100
1100
1000
0011
,  // measure 48
0001
1001
0010
0110
,  // measure 49
1000
1001
0010
0110
,  // measure 50
0001
1001
1000
0110
,  // measure 51
0001
1100
1000
1100
,  // measure 52
0010
0011
0010
1001
,  // measure 53
0100
1001
0100
0110
,  // measure 54
0002
0000
0000
0003
,  // measure 55
1000
1000
1000
0100
,  // measure 56
0100
0100
0100
0010
,  // measure 57
0010
0010
0010
0001
,  // measure 58
0001
0001
0001
0010
,  // measure 59
1000
1000
1000
1000
,  // measure 60
0001
0001
0001
0001
,  // measure 61
0010
0010
0010
0010
,  // measure 62
0100
0100
0100
0100
,  // measure 63
0001
0001
0001
0001
,  // measure 64
0100
0100
0100
0100
,  // measure 65
1000
1000
1000
1000
,  // measure 66
0010
0010
0010
0010
,  // measure 67
1000
1000
1000
1000
,  // measure 68
0001
0010
0100
1000
,  // measure 69
0100
0010
0001
0010
,  // measure 70
0100
1000
0100
0010
,  // measure 71
0001
0010
0100
1000
,  // measure 72
0100
0010
0001
0010
,  // measure 73
0100
1000
0100
0010
,  // measure 74
0001
0010
0100
0100
,  // measure 75
0010
0010
0010
0010
,  // measure 76
1000
1000
1000
1000
,  // measure 77
0010
0010
0010
0010
,  // measure 78
0001
0001
0001
0001
,  // measure 79
0100
0100
0100
0100
,  // measure 80
0001
0001
0001
0001
,  // measure 81
0100
0100
0100
0100
,  // measure 82
1001
1001
1001
1001
;
