#VERSION:0.83;
#TITLE:BBL DRIZZY;
#SUBTITLE:DRAKE DISS;
#ARTIST:MetroBoomin;
#TITLETRANSLIT:;
#SUBTITLETRANSLIT:;
#ARTISTTRANSLIT:;
#GENRE:;
#ORIGIN:;
#CREDIT:Gorilla v1.1.3 (Dancing Monkeys v1.06);
#BANNER:maxresdefault.png;
#BACKGROUND:maxresdefault (2).png;
#PREVIEWVID:;
#JACKET:;
#CDIMAGE:;
#DISCIMAGE:;
#LYRICSPATH:;
#CDTITLE:;
#MUSIC:Metro Boomin - BBL Drizzy (Lyrics) (Drake Diss).mp3;
#OFFSET:-1.836125;
#SAMPLESTART:41.836124;
#SAMPLELENGTH:12.000000;
#SELECTABLE:YES;
#BPMS:0.000=120.000;
#STOPS:;
#DELAYS:;
#WARPS:;
#TIMESIGNATURES:0.000=4=4;
#TICKCOUNTS:0.000=4;
#COMBOS:0.000=1;
#SPEEDS:0.000=1.000=0.000=0;
#SCROLLS:0.000=1.000;
#FAKES:;
#LABELS:0.000=Song Start;
#BGCHANGES:;
#KEYSOUNDS:;
#ATTACKS:
;

//---------------dance-single - Basic----------------
#NOTEDATA:;
#CHARTNAME:Basic;
#STEPSTYPE:dance-single;
#DESCRIPTION:Basic;
#CHARTSTYLE:;
#DIFFICULTY:Easy;
#METER:5;
#RADARVALUES:0.099947,0.089536,0.000000,0.013326,0.000000,105.000000,105.000000,0.000000,2.000000,0.000000,0.000000,0.000000,0.000000,0.000000,0.099947,0.089536,0.000000,0.013326,0.000000,105.000000,105.000000,0.000000,2.000000,0.000000,0.000000,0.000000,0.000000,0.000000;
#CREDIT:Basic;
#NOTES:
0000
0000
1000
0000
,
0010
0000
0001
0000
,
0100
0000
1000
0000
,
0010
0000
1000
0000
,
0100
0000
0001
0000
,
0010
0000
1000
0000
,
0001
0000
1000
0000
,
0010
0000
0001
0000
,
0100
0000
1000
0000
,
0010
0000
0001
0000
,
0010
0000
1000
0000
,
0001
0000
1000
0000
,
0010
0000
0001
0000
,
0100
0000
1000
0000
,
0010
0000
1000
0000
,
0001
0000
1000
0000
,
0100
0000
0001
0000
,
0100
0000
1000
0000
,
0001
0000
0000
1000
,
0000
0010
0000
0010
,
0000
0002
0000
0003
,
0000
0100
0000
1000
,
0000
0100
0000
1000
,
0000
1000
0000
0010
,
0000
0100
0000
0001
,
0000
1000
0000
0010
,
0000
1000
0000
0100
,
0000
0001
0000
0010
,
0000
0100
0000
0001
,
0000
0100
0000
0001
,
0000
0100
0000
0010
,
0000
0001
0000
0100
,
0000
0001
0000
0001
,
0000
0001
0000
1000
,
0000
1000
0000
1000
,
0000
0001
0000
0001
,
0000
0001
0000
1000
,
0000
1000
0000
2000
,
0000
3000
0000
1000
,
0000
1000
0000
0010
,
0000
0010
0000
0100
,
0000
0001
0000
0100
,
0000
0001
0000
0100
,
0000
1000
0000
0010
,
0000
0001
0000
0010
,
0000
1000
0000
1000
,
0000
0010
0000
0010
,
0000
1000
0000
0010
,
0000
0010
0000
0010
,
0000
0001
0000
1000
,
0000
0010
0000
1000
,
0000
0010
0000
0001
,
0000
0010
0000
0001
,
0000
0001
0000
0001
;

//---------------dance-single - Basic----------------
#NOTEDATA:;
#CHARTNAME:;
#STEPSTYPE:dance-single;
#DESCRIPTION:Basic;
#CHARTSTYLE:;
#DIFFICULTY:Beginner;
#METER:5;
#RADARVALUES:0.095187,0.090368,0.000000,0.039979,0.000000,100.000000,100.000000,0.000000,6.000000,0.000000,0.000000,0.000000,0.000000,0.000000,0.095187,0.090368,0.000000,0.039979,0.000000,100.000000,100.000000,0.000000,6.000000,0.000000,0.000000,0.000000,0.000000,0.000000;
#CREDIT:;
#NOTES:
// measure 0
0000
1000
0000
1000
,  // measure 1
0000
0010
0000
0010
,  // measure 2
0000
1000
0000
1000
,  // measure 3
0000
0010
0000
0010
,  // measure 4
0000
0010
0000
0001
,  // measure 5
0000
0001
0000
0001
,  // measure 6
0000
0010
0000
0010
,  // measure 7
0000
0010
0000
0100
,  // measure 8
0000
0100
0000
0100
,  // measure 9
0000
0001
0000
0001
,  // measure 10
0000
0001
0000
1000
,  // measure 11
0000
1000
0000
1000
,  // measure 12
0000
0010
0000
0010
,  // measure 13
0000
0010
0000
0100
,  // measure 14
0000
0100
0000
0100
,  // measure 15
0000
1000
0000
1000
,  // measure 16
0000
1000
0000
0001
,  // measure 17
0000
0001
0000
0001
,  // measure 18
0000
1000
0000
1000
,  // measure 19
0000
0002
0000
0000
,  // measure 20
0000
0000
0000
0003
,  // measure 21
0000
0000
1000
0000
,  // measure 22
1000
0000
1000
0000
,  // measure 23
0010
0000
0010
0000
,  // measure 24
0100
0000
0100
0000
,  // measure 25
0100
0000
0001
0000
,  // measure 26
0001
0000
0001
0000
,  // measure 27
0100
0000
0100
0000
,  // measure 28
0100
0000
1000
0000
,  // measure 29
1000
0000
1000
0000
,  // measure 30
0001
0000
0001
0000
,  // measure 31
0001
0000
0100
0000
,  // measure 32
0100
0000
0100
0000
,  // measure 33
0001
0000
0001
0000
,  // measure 34
0001
0000
1000
0000
,  // measure 35
1000
0000
0001
0000
,  // measure 36
0001
0000
1000
0000
,  // measure 37
1000
0000
1000
0000
,  // measure 38
0010
0000
0010
0000
,  // measure 39
0010
0000
1000
0000
,  // measure 40
1000
0000
2000
0000
,  // measure 41
0000
3000
0000
0100
,  // measure 42
0000
0001
0000
0100
,  // measure 43
0000
1000
0000
0002
,  // measure 44
0000
0003
0000
2000
,  // measure 45
0000
3000
0020
0000
,  // measure 46
0030
2000
0000
3000
,  // measure 47
0000
1000
0000
0010
,  // measure 48
0000
0010
0000
0010
,  // measure 49
0000
0001
0000
1000
,  // measure 50
0000
0010
0000
0000
,  // measure 51
1000
0000
0010
0000
,  // measure 52
0001
0000
0010
0000
,  // measure 53
0001
0000
0001
0000
,  // measure 54
0000
0001
0000
0000
;
