#VERSION:0.83;
#TITLE:avogadro-black-ops-iiii-alpha-omega-ost-128-ytshorts.savetube.me;
#SUBTITLE:;
#ARTIST:Dancing Monkeys Project;
#TITLETRANSLIT:;
#SUBTITLETRANSLIT:;
#ARTISTTRANSLIT:;
#GENRE:;
#ORIGIN:;
#CREDIT:Gorilla v1.1.3 (Dancing Monkeys v1.06);
#BANNER:1468169-dance-dance-revolution-wallpaper-1920x1080-image.png;
#BACKGROUND:1408-1716465813.png;
#PREVIEWVID:;
#JACKET:;
#CDIMAGE:;
#DISCIMAGE:;
#LYRICSPATH:;
#CDTITLE:;
#MUSIC:avogadro-black-ops-iiii-alpha-omega-ost-128-ytshorts.savetube.me.mp3;
#OFFSET:-1.829021;
#SAMPLESTART:44.995689;
#SAMPLELENGTH:12.000000;
#SELECTABLE:YES;
#BPMS:0.000=138.996;
#STOPS:135.000=1.727,
195.000=1.727;
#DELAYS:;
#WARPS:;
#TIMESIGNATURES:0.000=4=4;
#TICKCOUNTS:0.000=4;
#COMBOS:0.000=1;
#SPEEDS:0.000=1.000=0.000=0;
#SCROLLS:0.000=1.000;
#FAKES:;
#LABELS:0.000=Song Start;
#BGCHANGES:;
#KEYSOUNDS:;
#ATTACKS:
;

//---------------dance-single - Basic----------------
#NOTEDATA:;
#CHARTNAME:Basic;
#STEPSTYPE:dance-single;
#DESCRIPTION:Basic;
#CHARTSTYLE:;
#DIFFICULTY:Easy;
#METER:3;
#RADARVALUES:0.162084,0.146197,0.000000,0.009996,0.000000,227.000000,227.000000,0.000000,2.000000,0.000000,0.000000,0.000000,0.000000,0.000000,0.162084,0.146197,0.000000,0.009996,0.000000,227.000000,227.000000,0.000000,2.000000,0.000000,0.000000,0.000000,0.000000,0.000000;
#CREDIT:Basic;
#NOTES:
// measure 0
1000
0000
0000
0000
,  // measure 1
1000
0000
0000
0000
,  // measure 2
0001
0000
0000
0000
,  // measure 3
0001
0001
0100
0100
,  // measure 4
1000
1000
0010
0010
,  // measure 5
1000
1000
0100
0100
,  // measure 6
0001
0001
0010
0010
,  // measure 7
1000
1000
0100
0100
,  // measure 8
0001
0001
0100
0100
,  // measure 9
0001
0001
0100
0100
,  // measure 10
0001
0001
1000
0001
,  // measure 11
0001
0100
0010
0001
,  // measure 12
1000
0001
0100
0100
,  // measure 13
0001
0001
0010
0010
,  // measure 14
0010
0100
0100
0000
,  // measure 15
1000
0001
0100
0010
,  // measure 16
1000
0001
0010
0100
,  // measure 17
0001
1000
0010
0100
,  // measure 18
1000
0001
0100
0010
,  // measure 19
0001
1000
0100
0010
,  // measure 20
0001
1000
0010
0100
,  // measure 21
0001
1000
0100
0010
,  // measure 22
1000
0001
0100
0010
,  // measure 23
0001
0100
0010
0001
,  // measure 24
1000
0001
0100
0010
,  // measure 25
1000
0001
0010
0100
,  // measure 26
1000
0001
0100
0010
,  // measure 27
0001
1000
0100
0010
,  // measure 28
0001
1000
0010
0100
,  // measure 29
0001
1000
0100
0010
,  // measure 30
0001
1000
0100
0010
,  // measure 31
1000
0001
0100
0010
,  // measure 32
1000
0001
0010
0100
,  // measure 33
0001
1000
0010
0000
,  // measure 34
0001
0001
0010
0010
,  // measure 35
1000
1000
0100
0100
,  // measure 36
1000
1000
0001
0001
,  // measure 37
0010
0010
1000
1000
,  // measure 38
0010
0010
0100
0100
,  // measure 39
0001
0001
1000
0100
,  // measure 40
1000
0100
1000
0100
,  // measure 41
1000
0010
0001
0100
,  // measure 42
0001
0100
0001
0010
,  // measure 43
0001
2000
0000
3000
,  // measure 44
1000
0100
1000
0100
,  // measure 45
1000
0010
0001
0010
,  // measure 46
0001
0010
0001
0100
,  // measure 47
0001
0100
1000
0100
,  // measure 48
1000
0010
0001
0000
,  // measure 49
0000
0100
1000
0100
,  // measure 50
1000
0010
0001
0100
,  // measure 51
0001
0010
0001
0010
,  // measure 52
0001
0010
0001
0100
,  // measure 53
0001
0100
0001
0010
,  // measure 54
1000
0010
0100
0010
,  // measure 55
0001
0100
0010
0100
,  // measure 56
1000
0000
0010
0000
,  // measure 57
1000
0000
0001
0000
,  // measure 58
1000
0000
0010
0000
,  // measure 59
1000
0000
0001
0000
,  // measure 60
1000
0000
0010
0000
,  // measure 61
0001
0000
0010
0000
,  // measure 62
1000
0000
1000
0000
,  // measure 63
0001
0000
0001
0000
,  // measure 64
0002
0000
0000
0003
,  // measure 65
1000
0000
0000
0000
;
