#TITLE:Austin & Ally Theme Song;
#SUBTITLE:;
#ARTIST:Disney;
#TITLETRANSLIT:;
#SUBTITLETRANSLIT:;
#ARTISTTRANSLIT:;
#GENRE:;
#CREDIT:Gorilla v1.1.3 (Dancing Monkeys v1.06);
#BANNER:;
#BACKGROUND:;
#LYRICSPATH:;
#CDTITLE:;
#MUSIC:0Austin and Ally Theme song full lyrics Without You (1).mp3;
#OFFSET:-0.017846;
#SAMPLESTART:38.727596;
#SAMPLELENGTH:12.000000;
#SELECTABLE:YES;
#BPMS:0.000000=155.000000
;
#STOPS:
;
#BGCHANGES:;
#KEYSOUNDS:;
#ATTACKS:;

//---------------dance-single - Basic----------------
#NOTES:
     dance-single:
     Basic:
     Easy:
     3:
     0.249344,0.215361,0.000000,0.042228,0.000000,248.000000,248.000000,0.000000,6.000000,0.000000,0.000000,0.249344,0.215361,0.000000,0.042228,0.000000,248.000000,248.000000,0.000000,6.000000,0.000000,0.000000:
// measure 0
0000
0000
1000
1000
,  // measure 1
0000
0000
0001
0010
,  // measure 2
1000
0001
0000
0001
,  // measure 3
0001
0001
1000
1000
,  // measure 4
1000
0100
0100
1000
,  // measure 5
1000
1000
0001
0001
,  // measure 6
0001
0100
0100
0100
,  // measure 7
0001
0001
1000
1000
,  // measure 8
0100
0100
0100
1000
,  // measure 9
1000
1000
0010
0010
,  // measure 10
0001
0100
0001
0010
,  // measure 11
0001
0100
0100
1000
,  // measure 12
1000
0010
0010
1000
,  // measure 13
1000
1000
1000
0001
,  // measure 14
0001
0100
0100
0001
,  // measure 15
0001
0100
0100
0100
,  // measure 16
0100
0001
0010
0010
,  // measure 17
0001
1000
1000
0001
,  // measure 18
0002
0000
0000
0003
,  // measure 19
0000
0010
0001
0100
,  // measure 20
1000
1000
0010
1000
,  // measure 21
0001
0001
0100
0001
,  // measure 22
0001
0001
0100
0001
,  // measure 23
1000
0010
0001
1000
,  // measure 24
1000
1000
0010
1000
,  // measure 25
0001
1000
0100
1000
,  // measure 26
1000
0001
0100
0001
,  // measure 27
2000
0000
0000
0000
,  // measure 28
3000
1000
0010
1000
,  // measure 29
0002
0000
0000
0003
,  // measure 30
1000
0010
0010
1000
,  // measure 31
1000
0010
0001
0100
,  // measure 32
1000
1000
0010
1000
,  // measure 33
1000
0100
0100
0010
,  // measure 34
1000
1000
0010
1000
,  // measure 35
0001
0100
0100
0010
,  // measure 36
0001
1000
0010
1000
,  // measure 37
1000
0010
0010
0100
,  // measure 38
0001
1000
0010
1000
,  // measure 39
0001
0100
0010
1000
,  // measure 40
0001
0010
0100
0001
,  // measure 41
1000
0010
0100
0001
,  // measure 42
1000
0010
0100
0001
,  // measure 43
0001
0001
0100
0100
,  // measure 44
1000
1000
0001
0001
,  // measure 45
1000
1000
0010
0010
,  // measure 46
1000
1000
1000
0001
,  // measure 47
0001
0100
0100
1000
,  // measure 48
1000
0100
0100
1000
,  // measure 49
1000
0001
0001
1000
,  // measure 50
1000
1000
0010
1000
,  // measure 51
0002
0000
0000
0003
,  // measure 52
1000
0010
0001
1000
,  // measure 53
1000
1000
0010
1000
,  // measure 54
0001
0001
0100
0001
,  // measure 55
0001
0001
0010
0001
,  // measure 56
0100
0001
1000
0010
,  // measure 57
1000
1000
0010
1000
,  // measure 58
0001
1000
0100
1000
,  // measure 59
0001
1000
0010
1000
,  // measure 60
2000
0000
0000
0000
,  // measure 61
3000
1000
0010
0010
,  // measure 62
2000
0000
3000
1000
,  // measure 63
0001
0010
0010
0001
,  // measure 64
1000
0010
0001
0001
,  // measure 65
1000
1000
0010
1000
,  // measure 66
0001
1000
1000
0001
,  // measure 67
1000
1000
0010
1000
,  // measure 68
1000
0000
0000
0000
;

//---------------dance-single - Standard----------------
#NOTES:
     dance-single:
     Standard:
     Medium:
     4:
     0.248339,0.314068,0.007038,0.000000,0.000000,247.000000,246.000000,1.000000,0.000000,0.000000,0.000000,0.248339,0.314068,0.007038,0.000000,0.000000,247.000000,246.000000,1.000000,0.000000,0.000000,0.000000:
0000
0000
0000
0000
0000
0000
0001
0000
,
0000
0000
0000
0000
1000
0000
0100
0000
,
1000
0000
0100
0000
0000
0000
1000
0000
,
0001
0000
0000
0000
0000
0000
0010
0000
,
1000
0000
0100
0000
0000
0000
0000
0000
,
0001
0000
0000
0000
0000
0000
1000
0000
,
1000
0000
0100
0000
0000
0000
0000
0000
,
0001
0000
0000
0000
0000
0000
0010
0000
,
1000
0000
0100
0000
0000
0000
0000
0000
,
1000
0000
0010
0000
0000
0000
1000
0000
,
1000
0000
0100
0000
0000
0000
0000
0000
,
0001
0000
0100
0000
0000
0000
0000
0000
,
0001
0000
0010
0000
0000
0000
0000
0000
,
0001
0000
0000
0000
0000
0000
1000
0000
,
1000
0000
0100
0000
0000
0000
0000
0000
,
1000
0000
0010
0000
0000
0000
0000
0000
,
1000
0000
0100
0000
0000
0000
1000
0000
,
0001
0000
0010
0000
0000
0000
0100
0000
,
1000
0000
0000
0000
0000
0000
0100
0000
,
0001
0000
0010
0000
0001
0000
0000
0000
,
0001
0000
0001
0000
0000
0000
0001
0000
,
1000
0000
1000
0000
0000
0000
1000
0000
,
0001
0000
0001
0000
0000
0000
0001
0000
,
0001
0000
0010
0000
0001
0000
0000
0000
,
0001
0000
0001
0000
0000
0000
0001
0000
,
1000
0000
0010
0000
0100
0000
0100
0000
,
1000
0000
0100
0000
0010
0000
0010
0000
,
0001
0000
0000
0000
0100
0000
0001
0000
,
0001
0000
0001
0000
0000
0000
0001
0000
,
0001
0000
0000
0000
0100
0000
0001
0000
,
0001
0000
0000
0000
0010
0000
0001
0000
,
0001
0000
0010
0000
0001
0000
0000
0000
,
0001
0000
0001
0000
0000
0000
0001
0000
,
1000
0000
0010
0000
0000
0000
1000
0000
,
0001
0000
0001
0000
0000
0000
0001
0000
,
1000
0000
0100
0000
0000
0000
0000
0000
,
0001
0000
0000
0000
0000
0000
0010
0000
,
0001
0000
1000
0000
0000
0000
0000
0000
,
0001
0000
0000
0000
0000
0000
0010
0000
,
1000
0000
0100
0000
0000
0000
0000
0000
,
0001
0000
0010
0000
0000
0000
0000
0000
,
0001
0000
1000
0000
0000
0000
0000
0000
,
0001
0000
0000
0000
0000
0000
1000
0000
,
1000
0000
0100
0000
0000
0000
0000
0000
,
1000
0000
0100
0000
0000
0000
0000
0000
,
1000
0000
0010
0000
0000
0000
0000
0000
,
0001
0000
0000
0000
0000
0000
1000
0000
,
1000
0000
0100
0000
0000
0000
0000
0000
,
0001
0000
0010
0000
0000
0000
0000
0000
,
1000
0000
0100
0000
0000
0000
1000
0000
,
0001
0000
0001
0000
0000
0000
0001
0000
,
0001
0000
0000
0000
0000
0000
0010
0000
,
0001
0000
0010
0000
0001
0000
0000
0000
,
0001
0000
0001
0000
0000
0000
0001
0000
,
0001
0000
0001
0000
0000
0000
0001
0000
,
1000
0000
1000
0000
0000
0000
1000
0000
,
0000
0000
0001
0000
0100
0000
0010
0000
,
0001
0000
0001
0000
0000
0000
0001
0000
,
1000
0000
0010
0000
0100
0000
0100
0000
,
0001
0000
0010
0000
0100
0000
0100
0000
,
0001
0000
0010
0000
0100
0000
0100
0000
,
0001
0000
0001
0000
0000
0000
0001
0000
,
0001
0000
0000
0000
0100
0000
0001
0000
,
1000
0000
0000
0000
0010
0000
0001
0000
,
0001
0000
0010
0000
0001
0000
0000
0000
,
0001
0000
0001
0000
0000
0000
0001
0000
,
0001
0000
0010
0000
0000
0000
0100
0000
,
0001
0000
0001
0000
0000
0000
0001
0000
,
0001
0000
0000
0000
0000
0000
1000
0000
,
1000
0000
0010
0000
0000
0000
1000
0000
,
1000
0000
0100
0000
0000
0000
0000
0000
,
1000
0000
0010
0000
0000
0000
1000
0000
,
0001
0000
0010
0000
0000
0000
0001
0000
,
1000
0000
0010
0000
0000
0000
1000
0000
,
0001
0000
0010
0000
0000
0000
0001
0000
,
0001
0000
1000
0000
0010
0000
1100
0000
,
0001
0000
0100
0000
0010
0000
0100
0000
,
1000
0000
0000
0000
0010
0000
0001
0000
,
0001
0000
0001
0000
0000
0000
0001
0000
,
1000
0000
1000
0000
0000
0000
1000
0000
,
0001
0000
0010
0000
0001
0000
0000
0000
,
0001
0000
0001
0000
0000
0000
0001
0000
,
1000
0000
0010
0000
0100
0000
0100
0000
,
1000
0000
0010
0000
0100
0000
0100
0000
,
0001
0000
0010
0000
0100
0000
0100
0000
,
0001
0000
0001
0000
0000
0000
0001
0000
,
0001
0000
0000
0000
0100
0000
0001
0000
,
0001
0000
0000
0000
0100
0000
0001
0000
,
0001
0000
0010
0000
0001
0000
0000
0000
,
0001
0000
1000
0000
0000
0000
0000
0000
,
;

//---------------dance-single - Heavy----------------
#NOTES:
     dance-single:
     Heavy:
     Hard:
     5:
     0.306653,0.345475,0.014076,0.000000,0.000000,305.000000,303.000000,2.000000,0.000000,0.000000,0.000000,0.306653,0.345475,0.014076,0.000000,0.000000,305.000000,303.000000,2.000000,0.000000,0.000000,0.000000:
0000
0000
0000
0000
0000
0000
0001
0000
,
0000
0000
0000
1000
0001
0000
0010
0000
,
0001
0000
1000
0000
0000
0000
0010
0000
,
0001
0000
0000
0000
0010
0000
0100
0000
,
0001
0000
1000
0000
0000
0000
0000
0000
,
1000
0000
0010
0000
0000
0000
0100
0000
,
0001
0000
1000
0000
0000
0000
0000
0000
,
0001
0000
0000
0000
0010
0000
0100
0000
,
0001
0000
1000
0000
0000
0000
0000
0000
,
0001
0000
0100
0000
0000
0000
0001
0000
,
0001
0000
1000
0000
0000
0000
0000
0000
,
0001
0000
1000
0000
0000
0000
0000
0000
,
1000
0000
0001
0000
0000
0000
0000
0000
,
1000
0000
0010
0000
0000
0000
0100
0000
,
0001
0000
1000
0000
0000
0000
0000
0000
,
0001
0000
1000
0000
0000
0000
0000
0000
,
0001
0000
1000
0000
0000
0000
0010
0000
,
1000
0000
0001
0000
0100
0000
0010
0000
,
1000
0000
0001
0000
0000
0000
0100
0000
,
0001
0000
1000
0000
0100
0000
1000
0000
,
1000
0000
1000
0000
0010
0000
0010
0000
,
1000
0000
1000
0000
0010
0000
0010
0000
,
1000
0000
1000
0000
0100
0000
0100
0000
,
0001
0000
1000
0000
0100
0000
1000
0000
,
1000
0000
1000
0000
0010
0000
0010
0000
,
1000
0000
0001
0010
0100
0000
0100
0000
,
1000
0000
0001
0010
0100
0000
0100
0000
,
1000
0000
0010
0000
0100
0000
0001
0000
,
1000
0000
1000
0000
0010
0000
0010
0000
,
1000
0000
0010
0000
0100
0000
0001
0000
,
0001
0000
0010
0000
0100
0000
1000
0000
,
0001
0000
1000
0000
0100
0000
1000
0000
,
1000
0000
1000
0000
0010
0000
0010
0000
,
0001
0000
0100
0000
0000
0000
0001
0000
,
1000
0000
1000
0000
0010
0000
0010
0000
,
0001
0000
1000
0000
0000
0000
0000
0000
,
0001
0000
0000
0000
0010
0000
0100
0000
,
0001
0000
0100
0000
0000
0000
0000
0000
,
0001
0000
0000
0000
0010
0000
0100
0000
,
0001
0000
1000
0000
0000
0000
0000
0000
,
1000
0000
0001
0000
0000
0000
0000
0000
,
0001
0000
0100
0000
0000
0000
0000
0000
,
1000
0000
0010
0000
0000
0000
0100
0000
,
0001
0000
1000
0000
0000
0000
0000
0000
,
0001
0000
1000
0000
0000
0000
0000
0000
,
0001
0000
1000
0000
0000
0000
0000
0000
,
1000
0000
0010
0000
0000
0000
0100
0000
,
0001
0000
1000
0000
0000
0000
0000
0000
,
1000
0000
0001
0000
0000
0000
0000
0000
,
0001
0000
1000
0000
0000
0000
0010
0000
,
1000
0000
1000
0000
0010
0000
0010
0000
,
0001
0000
0000
0000
0010
0000
0100
0000
,
0001
0000
1000
0000
0100
0000
1000
0000
,
1000
0000
1000
0000
0010
0000
0010
0000
,
1000
0000
1000
0000
0010
0000
0010
0000
,
0001
0000
0001
0000
0010
0000
0010
0000
,
0001
0000
1000
0000
0100
0000
1000
0000
,
1000
0000
1000
0000
0010
0000
0010
0000
,
1000
0000
0001
0010
0100
0000
0100
0000
,
1000
0000
0001
0100
0010
0000
0010
0000
,
0001
0000
1000
0010
0100
0000
0100
0000
,
1000
0000
1000
0000
0010
0000
0010
0000
,
1000
0000
0010
0000
0100
0000
0001
0000
,
0001
0000
1000
0000
0001
0000
0010
0000
,
0001
0000
1000
0000
0100
0000
1000
0000
,
1000
0000
1000
0000
0010
0000
0010
0000
,
1000
0000
0001
0000
0100
0000
0010
0000
,
1000
0000
1000
0000
0010
0000
0010
0000
,
1000
0000
0010
0000
0000
0000
0100
0000
,
0001
0000
0100
0000
0000
0000
0001
0000
,
0001
0000
1000
0000
0000
0000
0000
0000
,
0001
0000
0100
0000
0000
0000
0001
0000
,
1000
0000
0010
0000
0000
0000
1000
0000
,
1000
0000
0100
0000
0000
0000
1000
0000
,
1000
0000
0010
0000
0000
0000
1000
0000
,
1000
0000
0001
0000
0010
0000
0110
0000
,
0101
0000
0001
0000
1000
0000
0010
0000
,
0001
0000
1000
0000
0001
0000
0010
0000
,
1000
0000
1000
0000
0010
0000
0010
0000
,
1000
0000
1000
0000
0100
0000
0100
0000
,
0001
0000
1000
0000
0100
0000
1000
0000
,
1000
0000
1000
0000
0010
0000
0010
0000
,
1000
0000
0001
0010
0100
0000
0100
0000
,
0001
0000
1000
0100
0010
0000
0010
0000
,
1000
0000
0001
0100
0010
0000
0010
0000
,
1000
0000
1000
0000
0010
0000
0010
0000
,
1000
0000
0010
0000
0100
0000
0001
0000
,
1000
0000
0010
0000
0100
0000
0001
0000
,
0001
0000
1000
0000
0100
0000
1000
0000
,
0001
0000
0100
0000
0000
0000
0000
0000
,
;
