#TITLE:Atomic Betty;
#SUBTITLE:;
#ARTIST:Dancing Monkeys Project;
#TITLETRANSLIT:;
#SUBTITLETRANSLIT:;
#ARTISTTRANSLIT:;
#GENRE:;
#CREDIT:Gorilla v1.1.3 (Dancing Monkeys v1.06);
#BANNER:atomic-betty.png;
#BACKGROUND:Atomic_Betty.png;
#LYRICSPATH:;
#CDTITLE:;
#MUSIC:Atomic Betty.mp3;
#OFFSET:-0.633250;
#SAMPLESTART:35.120750;
#SAMPLELENGTH:12.000000;
#SELECTABLE:YES;
#BPMS:0.000000=173.000000
;
#STOPS:
;
#BGCHANGES:;
#KEYSOUNDS:;
#ATTACKS:;

//---------------dance-single - Basic----------------
#NOTES:
     dance-single:
     Basic:
     Easy:
     3:
     0.161478,0.216334,0.000000,0.103386,0.000000,164.000000,164.000000,0.000000,15.000000,0.000000,0.000000,0.161478,0.216334,0.000000,0.103386,0.000000,164.000000,164.000000,0.000000,15.000000,0.000000,0.000000:
// measure 0
0000
0000
0000
0000
,  // measure 1
1000
0000
0000
0000
,  // measure 2
0000
2000
0000
0000
,  // measure 3
3000
0002
0000
0000
,  // measure 4
0003
2000
0000
0000
,  // measure 5
3000
0020
0000
0000
,  // measure 6
0030
0100
0000
0100
,  // measure 7
0000
0001
0000
0100
,  // measure 8
0000
0100
0000
0001
,  // measure 9
0000
0010
0000
0100
,  // measure 10
0000
0010
0010
0001
,  // measure 11
0001
1000
1000
0100
,  // measure 12
0100
0010
0010
1000
,  // measure 13
1000
0100
0100
0001
,  // measure 14
0001
0010
0010
0001
,  // measure 15
1000
0000
0010
0000
,  // measure 16
0000
2000
0000
0000
,  // measure 17
0000
0000
0000
3000
,  // measure 18
0000
0010
1000
0100
,  // measure 19
0010
0010
0010
0010
,  // measure 20
0000
1000
1000
0010
,  // measure 21
0100
0000
0010
0000
,  // measure 22
0000
0002
0000
0000
,  // measure 23
0000
0000
0000
0000
,  // measure 24
0003
0000
0100
0100
,  // measure 25
0001
0001
0100
0100
,  // measure 26
1000
0010
0100
1000
,  // measure 27
0001
0100
0001
0100
,  // measure 28
0100
0000
1000
0000
,  // measure 29
0001
0000
0100
0000
,  // measure 30
1000
0000
0010
0000
,  // measure 31
0001
0000
0010
0000
,  // measure 32
1000
0000
0010
0000
,  // measure 33
1000
0000
1000
0000
,  // measure 34
0001
0000
1000
0000
,  // measure 35
0002
0000
0000
0000
,  // measure 36
0003
0000
0100
0000
,  // measure 37
0001
0001
0001
0001
,  // measure 38
1000
0100
0010
0010
,  // measure 39
0001
0010
2000
0000
,  // measure 40
3000
0100
0010
0001
,  // measure 41
0002
0000
0000
0003
,  // measure 42
1000
1000
1000
1000
,  // measure 43
2000
0000
0000
0000
,  // measure 44
3000
0100
0100
0100
,  // measure 45
0001
0001
0001
0010
,  // measure 46
0010
0010
1000
1000
,  // measure 47
1000
0100
0100
0000
,  // measure 48
0010
0001
0010
0001
,  // measure 49
1000
0100
0100
0100
,  // measure 50
0000
0100
0000
0010
,  // measure 51
0000
0001
0000
0000
,  // measure 52
0000
0010
0000
0100
,  // measure 53
0000
0100
0000
0000
,  // measure 54
1000
0000
0000
1000
,  // measure 55
0000
0010
0000
0000
,  // measure 56
0000
0010
0000
0100
,  // measure 57
0000
0010
0000
0000
,  // measure 58
0001
0010
0100
0100
,  // measure 59
0100
2000
0000
3000
,  // measure 60
0100
0100
0010
0001
,  // measure 61
0010
1000
0010
0000
,  // measure 62
0001
0001
0001
0002
,  // measure 63
0000
0000
0000
0003
,  // measure 64
1000
1000
0010
0100
,  // measure 65
0100
0002
0000
0000
,  // measure 66
0003
1000
1000
0010
,  // measure 67
0010
0020
0000
0030
,  // measure 68
1000
1000
1000
2000
,  // measure 69
0000
0000
0000
3000
;
