#TITLE:Bergentruckung & ASGORE;
#SUBTITLE:;
#ARTIST:Toby Fox;
#TITLETRANSLIT:;
#SUBTITLETRANSLIT:;
#ARTISTTRANSLIT:;
#GENRE:;
#CREDIT:;
#BANNER:asgore.png;
#BACKGROUND:asgore-bg.png;
#LYRICSPATH:;
#CDTITLE:;
#MUSIC:basgore.mp3;
#OFFSET:-0.315000;
#SAMPLESTART:34.325001;
#SAMPLELENGTH:12.500000;
#SELECTABLE:YES;
#BPMS:0.000000=56.500000
,5.000000=113.000000
,20.000000=56.500000
,21.000000=57.419998
,24.000000=114.839996
,249.000000=57.419998
,265.000000=114.839996
;
#STOPS:5.000000=0.266000,
5.500000=0.266000,
6.000000=0.531000,
7.000000=0.266000,
7.500000=0.266000,
8.000000=0.531000,
9.000000=0.266000,
9.500000=0.266000,
10.000000=0.133000,
10.250000=0.133000,
10.500000=0.133000,
10.750000=0.133000,
11.000000=0.266000,
11.500000=0.266000,
12.000000=0.531000,
13.000000=0.266000,
13.500000=0.266000,
14.000000=0.266000,
14.500000=0.266000,
15.000000=0.266000,
15.500000=0.266000,
16.000000=0.266000,
16.500000=0.266000,
17.000000=0.133000,
17.250000=0.133000,
17.500000=0.133000,
17.750000=0.133000,
18.000000=0.133000,
18.250000=0.133000,
18.500000=0.133000,
18.750000=0.133000,
19.000000=0.033000,
19.062500=0.033000,
19.125000=0.066000,
19.250000=0.133000,
19.500000=0.133000,
19.750000=0.133000,
21.000000=8.359000,
24.000000=-8.359457,
57.000000=0.266000,
57.500000=0.266000,
88.000000=0.266000,
88.500000=0.266000
;
#BGCHANGES:;
#KEYSOUNDS:;
#ATTACKS:;

//---------------dance-single - determination!----------------
#NOTES:
     dance-single:
     determination!:
     Challenge:
     11:
     0.654175,0.763869,0.180082,0.226389,1.016176,890.000000,855.000000,35.000000,44.000000,42.000000,0.000000,0.654175,0.763869,0.180082,0.226389,1.016176,890.000000,855.000000,35.000000,44.000000,42.000000,0.000000:
0000
0000
0000
0000
,
0000
0000
0100
0001
2000
0000
3010
0100
,
0020
0000
0000
0000
1030
0000
0100
0000
2010
0010
0010
0010
3001
0000
0001
0000
,
0120
0000
1030
0010
0011
0100
1100
0010
,
0002
0000
0000
0000
0000
0000
0000
0000
0010
0000
0000
0000
0000
0000
0000
0000
0103
0000
0000
0000
0100
0000
0000
0000
0010
0000
0000
0000
1000
0000
0000
0000
0001
0000
0000
0000
0010
0000
0000
0000
0100
0000
0000
0000
0010
0000
0000
0000
1000
0001
1000
0000
0001
0000
0000
0000
0010
0000
0000
0000
0010
0000
0000
0000
,
0200
0300
0000
0000
,
0000
0000
0000
0000
,
0000
0000
0000
0000
,
M000
000M
0M00
00M0
M000
000M
0M00
00M0
,
M000
00M0
000M
0M00
00M0
M000
0M00
000M
M000
0M00
000M
00M0
0M00
M000
00M0
000M
,
M000
00M0
0M00
00M0
000M
000M
00M0
M000
0M00
0M00
M000
000M
00M0
0M00
000M
0M00
M000
000M
00M0
0M00
000M
0M00
0000
0000
1010
0000
0000
0000
0010
0000
0100
0000
,
0010
0100
0000
0010
1000
0000
0001
0100
0000
0010
0100
0000
0010
0000
1000
0000
,
0001
0000
0100
0000
0010
1000
0010
0100
0010
0000
0100
0000
0001
0000
1000
0010
,
0100
0000
0010
0000
0100
0000
0001
1000
0000
0010
0100
0000
0010
0000
0100
0000
,
0001
1000
0001
0000
1001
0000
0110
0000
2000
0000
0010
0000
3010
1000
0010
0000
,
0010
0100
0001
0000
0010
0100
0010
1000
0001
0000
0100
0000
0010
0000
0100
0001
,
1000
0000
0001
0100
0000
0010
0100
0000
0020
0000
0001
0000
0031
0100
0010
1000
,
0010
0100
0001
0100
0010
0001
1000
1000
0002
0000
0000
0000
0000
0000
0000
0003
,
1100
0000
0000
0000
0011
0000
0000
0000
1000
0010
0100
0010
0100
0001
0100
0010
,
0100
0010
1000
0001
1000
0001
0100
0001
1000
0000
0010
0000
0100
0000
0010
0000
,
0100
0000
0001
1000
0000
0001
1000
0000
0010
0100
0001
0100
0010
0000
0001
0100
,
0010
1000
0001
0000
0010
1000
0000
0100
1000
0100
0010
0000
1000
0001
0000
0000
,
0011
0000
1100
0000
0001
1000
0001
1000
0001
1000
0100
0000
0010
0000
0100
0010
,
0000
0100
0010
0000
1000
0001
1000
0001
0100
0000
0010
0000
1000
0000
0010
0100
,
0000
0010
0100
0000
0020
0000
0100
0000
0100
0030
0001
0000
1000
0100
0010
0001
,
0100
1000
0010
1000
0020
000M
0M00
M000
000M
0000
0M00
M000
000M
0000
0M00
M000
,
000M
0000
0M30
M000
0001
1000
0001
1000
0001
0000
0000
1000
0000
0001
1000
0010
,
1100
0000
0010
0000
0100
0001
1000
0001
0100
0000
0001
0100
0000
0001
1000
0010
,
1001
0000
0010
0000
0100
0010
0001
0010
0100
0000
0010
1000
0000
0010
1000
0001
,
1001
0000
0010
0000
0200
0000
0300
0002
0000
0003
1000
0000
0010
0200
0000
0010
,
0000
0000
0310
0000
0000
0000
0000
0000
1000
0000
0001
0000
1000
0000
0001
0000
0100
0000
0000
0000
0000
0000
0010
0000
0000
0000
1000
0000
0001
0000
1000
0001
,
1000
0000
0000
0000
0010
0000
0000
0000
1000
0000
0010
0000
1000
0000
0010
0000
0100
0000
0000
0000
0010
0000
0100
0000
0000
0000
0010
0000
1000
0000
0010
0001
,
1000
0000
0000
0000
1000
0000
0000
0000
0010
0000
0100
0000
0010
0000
0100
0000
0010
0000
0000
0000
1000
0000
0001
0000
0000
0000
0100
0000
0001
1000
0100
0000
,
0001
0000
1000
0000
0020
0000
0000
0200
0030
0000
0001
0000
0001
0001
0000
0001
,
0300
0000
0000
0000
0100
0000
0000
0000
0100
0000
1000
0000
0100
0000
0001
0000
0010
0000
1000
0000
0001
0000
0100
0000
1000
0000
0100
0000
0001
0000
0100
0010
,
0100
0000
0000
0000
0100
0000
0000
0000
1000
0000
0010
0000
1000
0000
0001
0000
0100
0000
0010
0000
1000
0000
0100
0000
1000
0000
0010
0000
0100
0000
0010
0001
,
0100
0000
0000
0000
0010
0000
0000
0000
0010
0000
1000
0000
0010
0000
0100
0000
0001
0000
0100
0000
0010
0000
0100
0000
0001
0000
1000
0000
0001
0000
1000
0001
,
1000
0000
0100
0000
0200
0000
0000
0320
0000
0000
1000
0030
0001
0200
0000
0001
,
0000
0000
0301
0000
0100
0000
0000
0000
0010
0000
1000
0000
0010
0000
0100
0000
0010
0000
1000
0000
0010
0000
0100
0000
0001
0000
0100
0000
0001
0000
0100
1000
,
0100
0000
0000
0000
0010
0000
0000
0000
1000
0000
0010
0000
0100
0000
0010
0000
0100
0000
0001
0000
1000
0000
0001
0000
1000
0000
0010
0000
0100
0000
0001
1000
,
0010
0000
0000
0000
0100
0000
0000
0000
0010
0000
1000
0000
0010
0000
0100
0000
0010
0000
0100
0000
0001
0000
0100
0000
0010
0000
1000
0000
0001
0000
1000
0001
,
1000
0000
0010
0000
0100
0000
0010
0100
0000
0001
0100
0000
0001
1000
0000
0001
,
0000
0001
0001
0000
0100
0010
1000
0010
0100
0000
0001
0100
0000
0010
0100
0010
,
1100
0000
0010
0000
0100
0001
0100
0001
0100
0000
0001
1000
0000
0010
0100
0010
,
1100
0000
0010
0000
0010
1000
0001
1000
0001
0000
0100
0010
0000
0100
0001
0100
,
0011
0000
0100
0000
2000
0000
0001
0200
3000
0000
0310
0000
1000
0001
0000
1200
,
0000
0000
0000
0000
0310
0000
0000
0000
1000
0000
0001
0000
0100
0000
0010
0000
0100
0000
0000
0000
0010
0000
0100
0000
0000
0000
0001
0000
0100
0000
0010
1000
,
0100
0000
0000
0000
0010
0000
0000
0000
1000
0000
0001
0000
0100
0000
0010
0000
0100
0000
0000
0000
0010
0000
1000
0000
0000
0000
0001
0000
0001
0000
0100
0001
,
1000
0000
0000
0000
1000
0000
0000
0000
0010
0000
0100
0000
0010
0000
0100
0000
0010
0000
0000
0000
0100
0000
0010
0000
0000
0000
1000
0000
0010
0000
0010
0001
,
1000
0000
0010
0000
0200
0000
0000
2000
0300
0000
0010
3000
0010
0010
0000
0100
,
0000
0001
0100
0000
0002
0000
0100
0000
0100
0000
0100
0000
0100
0000
0103
0000
,
0010
0000
1000
0000
0200
0000
0010
0000
0010
0000
0301
0000
1000
0010
0000
0100
,
0000
0010
0100
0000
0002
0000
0100
0000
0100
0000
0103
0001
1000
0000
1000
0000
,
0010
0000
0200
0000
0002
0000
0000
0000
0000
0303
0000
0000
2200
0000
3300
0022
,
0000
0033
0102
0000
0103
0000
0010
0100
1000
0100
0010
0100
0010
1000
0001
1000
,
0001
0000
0100
0000
1010
0000
0100
0001
0000
0100
0001
0000
0100
0010
1000
0010
,
1000
0000
0010
0000
0001
0010
0100
1000
0001
0010
0100
1000
0100
0010
0100
0010
,
0100
0000
0001
0000
1100
0000
0001
1000
0000
1000
0001
0000
0100
0000
0001
0100
,
0000
0001
1000
0000
0001
0100
0010
1000
0010
0100
0001
0100
0001
1000
0010
1000
,
0100
1000
0010
1000
0001
0000
0100
0000
0001
0000
0100
0000
0010
0010
0000
1000
,
0000
0010
0100
0000
0010
1000
0001
1000
0010
0100
0001
1000
0001
0100
0010
1000
,
0100
0010
0001
0000
0010
1000
0100
1000
0010
1000
0001
1000
0100
0010
0001
1000
,
0100
0000
0000
0000
0010
0000
0000
0000
0001
1000
0001
0000
1000
0000
0100
0000
0100
0000
0001
1000
0000
0000
0010
0100
0010
0000
0000
0100
0000
0001
0001
0000
,
2000
0000
0000
0000
0000
0000
0000
3000
0010
0100
0010
0100
0010
0000
0100
0000
0001
0000
0000
1000
0000
0000
0010
0100
0010
0000
0100
0001
0000
1000
0001
0000
,
0200
0000
0000
0000
0000
0000
0000
0000
0310
0001
1000
0001
1000
0000
0001
0000
0100
0000
0001
1000
0000
0000
0001
0100
0001
0000
0100
0010
0000
0100
0010
0000
,
2000
0000
0000
0000
0000
0000
0000
3000
0001
0010
0100
1000
0001
0000
1000
0000
0010
0000
0000
0100
0000
0000
0010
0100
0010
0000
0100
0010
0000
0100
0001
0000
,
0200
0000
0000
0000
0000
0000
0000
0300
1000
0000
1000
0000
0001
0000
1000
0000
0001
0000
0000
0000
0100
0000
0010
0000
0100
0000
0000
0000
0010
0000
1000
0000
,
0000
0000
0001
0100
0010
0100
0010
1000
0001
1000
0010
1000
1001
0000
0110
0000
,
0011
0000
1100
0000
0001
0100
0010
0100
1000
0100
0010
0001
1000
0001
0010
0100
,
1000
0100
0010
1000
0001
1000
0010
0100
0010
1000
0100
0000
0002
0000
2000
0003
,
0020
3000
0200
0030
0001
1300
0010
0100
0010
0100
1000
0100
0001
0000
0100
1000
,
0000
0100
0010
1000
0001
0100
0010
0100
1000
0100
0010
0000
1010
0000
1001
0000
,
0011
0000
0110
0000
0001
1000
0010
0100
0010
0100
0010
0100
0001
1000
0010
0100
,
0010
1000
0001
0010
1000
0100
0001
0000
1000
0000
0010
0100
0001
1000
0100
0010
,
0001
0100
0010
0100
0001
0000
0100
0010
0000
1000
0001
0000
0100
0010
1000
0010
,
0100
0010
0100
0010
0001
0000
1000
0001
0000
0010
1000
0000
0010
0100
0010
0100
,
0001
0100
0010
0000
1010
0000
0000
0101
0000
0000
0110
0000
1000
0010
0100
0010
,
0100
0000
1000
0001
1000
0001
0010
0100
0010
1000
0001
1000
0010
0100
0001
0100
,
0010
0000
1000
0000
0001
0010
0100
0000
0010
0000
0100
0000
1000
0001
1000
0000
0010
0000
1000
0000
0001
1000
0100
0000
0010
0000
1000
0000
0010
1000
0001
0000
,
0010
0100
0010
0000
2M02
0000
00M0
0000
0M00
0000
00M0
0000
0M00
0000
00M0
0000
,
0M00
00M0
3003
0000
0000
0000
0000
0000
;

//---------------dance-single - determination!----------------
#NOTES:
     dance-single:
     :
     Easy:
     11:
     0.208013,0.206451,0.015436,0.128630,0.000000,283.000000,280.000000,3.000000,25.000000,0.000000,0.000000,0.208013,0.206451,0.015436,0.128630,0.000000,283.000000,280.000000,3.000000,25.000000,0.000000,0.000000:
// measure 0
0000
0000
0000
0000
,  // measure 1
0000
0100
2000
3000
,  // measure 2
0020
0030
2000
3000
,  // measure 3
0020
0030
0001
1000
,  // measure 4
0002
0003
0010
1000
,  // measure 5
0200
0300
0000
0000
,  // measure 6
0000
0000
0000
0000
,  // measure 7
0000
0000
0000
0000
,  // measure 8
0000
0000
0000
0000
,  // measure 9
0000
0000
0000
0000
,  // measure 10
0000
0000
0010
1000
,  // measure 11
0010
1000
0100
0010
,  // measure 12
0001
0100
0010
0001
,  // measure 13
0100
0100
0001
0010
,  // measure 14
0001
0000
0000
1001
0000
0000
2000
0000
0000
0010
3000
0000
,  // measure 15
0010
0010
0001
0010
,  // measure 16
1000
0100
0020
0031
,  // measure 17
1000
0000
0000
0000
0010
0000
0000
0000
0002
0000
0000
0000
0000
0000
0000
0003
,  // measure 18
1000
0001
1000
0100
,  // measure 19
0100
1000
1000
0100
,  // measure 20
0100
1000
0010
0001
,  // measure 21
0100
0100
1000
1000
,  // measure 22
0010
0001
0001
0010
,  // measure 23
0100
1000
0100
1000
,  // measure 24
0001
0000
0000
0000
0020
0000
0000
0000
0100
0030
0000
0000
1000
0000
0000
0000
,  // measure 25
0100
0020
0000
0000
,  // measure 26
0000
0000
0000
0030
1000
0000
0000
0000
0001
0000
0000
0000
0100
0000
0000
0000
,  // measure 27
1000
0001
0100
0010
,  // measure 28
1000
0010
0100
1000
,  // measure 29
0010
0000
0200
0300
0001
0000
1000
0000
,  // measure 30
0010
1000
0100
0010
,  // measure 31
1000
0001
0100
0001
,  // measure 32
1000
0100
0010
1000
,  // measure 33
0100
0020
1030
0001
,  // measure 34
0010
0100
0010
1000
,  // measure 35
0001
1000
0001
1000
,  // measure 36
0100
0010
1000
0001
,  // measure 37
1000
0100
0010
0001
,  // measure 38
0100
0010
1000
0001
,  // measure 39
0100
1000
0100
1000
,  // measure 40
0010
0100
0010
0100
,  // measure 41
1000
0100
0010
0001
,  // measure 42
1000
0100
0010
0100
,  // measure 43
0001
1000
0100
0001
,  // measure 44
1000
0010
0001
0100
,  // measure 45
0001
1000
0010
1000
,  // measure 46
0001
1000
0100
0001
,  // measure 47
0100
1000
0100
0001
,  // measure 48
1000
0010
0100
0001
,  // measure 49
1000
0200
0300
0010
,  // measure 50
1000
0000
0002
0000
0100
0000
0100
0003
,  // measure 51
0010
0000
0200
0000
0010
0300
1000
0000
,  // measure 52
0002
0000
0000
0000
0000
0003
0000
0000
0100
0000
0000
0000
1000
0000
0000
0000
,  // measure 53
0010
0000
0000
0000
0002
0000
0000
0000
0000
0003
0000
0000
1000
0000
0000
0000
,  // measure 54
0010
0100
1000
0010
,  // measure 55
0001
1000
0001
0100
,  // measure 56
1000
0001
1001
0010
,  // measure 57
0100
1000
0001
0100
,  // measure 58
0001
1000
0010
0001
,  // measure 59
0100
0001
1000
0010
,  // measure 60
1000
0100
0010
0001
,  // measure 61
0100
0010
1000
0100
,  // measure 62
0001
0001
0100
0010
,  // measure 63
2000
0000
0000
0000
0000
0000
0000
3000
0010
0000
0000
0000
0000
0000
0000
0000
0200
0000
0000
0000
0000
0000
0000
0000
0310
0000
0000
0000
0000
0000
0000
0000
,  // measure 64
0100
0010
0100
0001
,  // measure 65
2000
0000
0000
0000
0000
0000
0000
3000
0100
0000
0000
0000
0000
0000
0000
0000
0001
0000
0000
0000
0000
0000
0000
0000
0010
0000
0000
0000
0000
0000
0000
0000
,  // measure 66
0100
1000
0001
0100
,  // measure 67
1000
0010
0001
1000
,  // measure 68
0010
0001
1000
0010
,  // measure 69
1000
0000
0000
0000
0001
0000
0000
0000
0100
0000
0000
0000
0002
0000
0000
0003
,  // measure 70
0020
0000
0000
0030
0001
0000
0000
0000
0010
0000
0000
0000
1000
0000
0000
0000
,  // measure 71
0010
0001
1000
0010
,  // measure 72
0100
1000
0010
0001
,  // measure 73
0010
1000
0100
0001
,  // measure 74
1000
0001
0010
1000
,  // measure 75
0100
0001
1000
0010
,  // measure 76
0001
1000
0010
1000
,  // measure 77
0100
1000
0010
1000
,  // measure 78
0100
0001
0010
1000
,  // measure 79
0010
2002
0000
0000
,  // measure 80
0000
3003
0000
0000
;
