#VERSION:0.83;
#TITLE:Are You CN This;
#SUBTITLE:;
#ARTIST:Cartoonnetwork;
#TITLETRANSLIT:;
#SUBTITLETRANSLIT:;
#ARTISTTRANSLIT:;
#GENRE:;
#ORIGIN:;
#CREDIT:Gorilla v1.1.3 (Dancing Monkeys v1.06);
#BANNER:;
#BACKGROUND:;
#PREVIEWVID:;
#JACKET:;
#CDIMAGE:;
#DISCIMAGE:;
#LYRICSPATH:;
#CDTITLE:;
#MUSIC:Cartoon Network - Are you CN this rap song (with lyrics!).mp3;
#OFFSET:-0.220522;
#SAMPLESTART:44.721657;
#SAMPLELENGTH:12.000000;
#SELECTABLE:YES;
#BPMS:0.000=134.828;
#STOPS:;
#DELAYS:;
#WARPS:;
#TIMESIGNATURES:0.000=4=4;
#TICKCOUNTS:0.000=4;
#COMBOS:0.000=1;
#SPEEDS:0.000=1.000=0.000=0;
#SCROLLS:0.000=1.000;
#FAKES:;
#LABELS:0.000=Song Start;
#BGCHANGES:;
#KEYSOUNDS:;
#ATTACKS:
;

//---------------dance-single - Basic----------------
#NOTEDATA:;
#CHARTNAME:Basic;
#STEPSTYPE:dance-single;
#DESCRIPTION:Basic;
#CHARTSTYLE:;
#DIFFICULTY:Easy;
#METER:3;
#RADARVALUES:0.156758,0.184464,0.006650,0.013301,0.000000,165.000000,164.000000,1.000000,2.000000,0.000000,0.000000,0.000000,0.000000,0.000000,0.156758,0.184464,0.006650,0.013301,0.000000,165.000000,164.000000,1.000000,2.000000,0.000000,0.000000,0.000000,0.000000,0.000000;
#CREDIT:Basic;
#NOTES:
// measure 0
0000
0000
0000
0000
,  // measure 1
0000
0000
0000
0000
,  // measure 2
0000
0000
0000
0000
,  // measure 3
0000
0000
0000
0100
,  // measure 4
0000
0010
0010
0000
,  // measure 5
1000
0000
0001
0000
,  // measure 6
0001
0000
0010
0000
,  // measure 7
1000
0000
0010
0000
,  // measure 8
0001
0000
0010
0000
,  // measure 9
1000
0000
0001
0000
,  // measure 10
0010
0000
0010
0000
,  // measure 11
1000
0000
0010
0000
,  // measure 12
1000
0000
0010
0000
,  // measure 13
0100
0000
1000
0000
,  // measure 14
0010
0000
1000
0000
,  // measure 15
0010
0000
0001
0000
,  // measure 16
1000
0000
0010
0000
,  // measure 17
1000
0000
0010
0000
,  // measure 18
0100
0000
1000
0000
,  // measure 19
0010
0000
0001
0000
,  // measure 20
0010
0000
0100
0000
,  // measure 21
1000
0000
1000
0000
,  // measure 22
0010
0000
1000
0000
,  // measure 23
0010
0000
1000
0000
,  // measure 24
0001
0000
0010
0000
,  // measure 25
0001
0000
0010
0000
,  // measure 26
1000
0000
0010
0000
,  // measure 27
1000
0000
0010
0000
,  // measure 28
0100
0000
0010
0000
,  // measure 29
1000
0000
0100
0000
,  // measure 30
0010
0000
0010
0000
,  // measure 31
0100
0000
1000
0000
,  // measure 32
0010
0000
1000
0000
,  // measure 33
0010
0000
1000
0000
,  // measure 34
0010
0000
0001
0000
,  // measure 35
0100
0000
1000
0000
,  // measure 36
0010
0000
0100
0000
,  // measure 37
0010
0000
1000
0000
,  // measure 38
0010
0000
1000
0000
,  // measure 39
0010
0000
0001
0000
,  // measure 40
0100
0000
1000
0000
,  // measure 41
0010
0000
1000
0000
,  // measure 42
0010
0000
0001
0000
,  // measure 43
0010
0000
1000
0000
,  // measure 44
0001
0001
0000
1000
,  // measure 45
1000
1000
0000
0100
,  // measure 46
0100
0001
0000
0100
,  // measure 47
0001
0001
0000
0100
,  // measure 48
1000
0010
0000
1000
,  // measure 49
1000
1000
0000
0010
,  // measure 50
1000
0010
0000
0001
,  // measure 51
0000
0010
0000
1000
,  // measure 52
0000
0100
0100
2000
,  // measure 53
0000
3000
0000
0010
,  // measure 54
1000
0010
0010
0000
,  // measure 55
1000
0100
0000
0010
,  // measure 56
1000
0010
0000
0002
,  // measure 57
0000
0003
0000
0001
,  // measure 58
0001
0100
0100
0100
,  // measure 59
0000
0100
0000
1000
,  // measure 60
0000
0010
0000
0100
,  // measure 61
0000
0001
0000
0100
,  // measure 62
0000
0010
0000
0100
,  // measure 63
0000
1000
0000
0010
,  // measure 64
0000
0001
0000
0100
,  // measure 65
0000
0001
0000
0100
,  // measure 66
0000
0010
0000
1000
,  // measure 67
0000
0100
0000
0010
,  // measure 68
0000
0100
0000
1000
,  // measure 69
0000
0010
0000
0010
,  // measure 70
0000
1000
0000
0001
,  // measure 71
0000
0010
0000
0010
,  // measure 72
0000
0100
0000
0100
,  // measure 73
0000
1000
0000
0100
,  // measure 74
0000
0010
0000
1001
,  // measure 75
0000
0100
0000
0100
,  // measure 76
0000
1000
0000
0001
,  // measure 77
0001
0001
0000
0100
,  // measure 78
0000
1000
0000
0100
,  // measure 79
0000
0001
0000
0000
;
