#VERSION:0.83;
#TITLE:Aqua Teen Hunger Force-Theme Song;
#SUBTITLE:;
#ARTIST:Cartoonnetwork;
#TITLETRANSLIT:;
#SUBTITLETRANSLIT:;
#ARTISTTRANSLIT:;
#GENRE:;
#ORIGIN:;
#CREDIT:Gorilla v1.1.3 (Dancing Monkeys v1.06);
#BANNER:;
#BACKGROUND:;
#PREVIEWVID:;
#JACKET:;
#CDIMAGE:;
#DISCIMAGE:;
#LYRICSPATH:;
#CDTITLE:;
#MUSIC:Aqua Teen Hunger Force-Theme Song.mp3;
#OFFSET:-0.664535;
#SAMPLESTART:34.666805;
#SAMPLELENGTH:12.000000;
#SELECTABLE:YES;
#BPMS:0.000=176.000;
#STOPS:;
#DELAYS:;
#WARPS:;
#TIMESIGNATURES:0.000=4=4;
#TICKCOUNTS:0.000=4;
#COMBOS:0.000=1;
#SPEEDS:0.000=1.000=0.000=0;
#SCROLLS:0.000=1.000;
#FAKES:;
#LABELS:0.000=Song Start;
#BGCHANGES:;
#KEYSOUNDS:;
#ATTACKS:
;

//---------------dance-single - Basic----------------
#NOTEDATA:;
#CHARTNAME:Basic;
#STEPSTYPE:dance-single;
#DESCRIPTION:Basic;
#CHARTSTYLE:;
#DIFFICULTY:Easy;
#METER:3;
#RADARVALUES:0.164684,0.181047,0.000000,0.009853,0.000000,117.000000,117.000000,0.000000,1.000000,0.000000,0.000000,0.000000,0.000000,0.000000,0.164684,0.181047,0.000000,0.009853,0.000000,117.000000,117.000000,0.000000,1.000000,0.000000,0.000000,0.000000,0.000000,0.000000;
#CREDIT:Basic;
#NOTES:
// measure 0
0000
0000
0000
0000
,  // measure 1
0000
0000
0000
0000
,  // measure 2
0000
0000
0000
0000
,  // measure 3
0000
0000
0000
0000
,  // measure 4
0000
0000
0000
0000
,  // measure 5
0000
0000
0000
1000
,  // measure 6
0000
0000
1000
1000
,  // measure 7
0000
0001
0001
0000
,  // measure 8
0010
0000
1000
1000
,  // measure 9
0000
0001
0001
0000
,  // measure 10
0010
0000
1000
1000
,  // measure 11
0000
0001
0001
0000
,  // measure 12
1000
0000
0001
0001
,  // measure 13
0000
1000
1000
0000
,  // measure 14
0010
0000
0001
0001
,  // measure 15
0000
0010
0010
0000
,  // measure 16
1000
0000
0001
0001
,  // measure 17
0000
1000
1000
0000
,  // measure 18
0010
0000
0100
0100
,  // measure 19
0000
0001
0000
0001
,  // measure 20
0000
0100
0000
0100
,  // measure 21
0000
0010
0000
1000
,  // measure 22
0000
0001
0000
0100
,  // measure 23
0000
1000
0000
0000
,  // measure 24
0001
0000
0100
0000
,  // measure 25
0000
1000
0000
0010
,  // measure 26
0000
1000
0000
0100
,  // measure 27
0000
1000
0000
0010
,  // measure 28
0000
1000
0000
0100
,  // measure 29
0000
2000
0000
3000
,  // measure 30
0000
1000
0000
0000
,  // measure 31
0000
0001
0000
0000
,  // measure 32
0000
1000
0000
0010
,  // measure 33
0000
0001
0000
0000
,  // measure 34
0000
0010
0000
1000
,  // measure 35
0000
0001
0000
0100
,  // measure 36
0000
1000
0000
0010
,  // measure 37
0000
0001
0000
1000
,  // measure 38
0000
0010
0000
0100
,  // measure 39
0000
0001
0000
0010
,  // measure 40
0000
1000
0000
0010
,  // measure 41
0000
0001
0000
0010
,  // measure 42
0000
0001
0000
1000
,  // measure 43
0000
0001
0000
0010
,  // measure 44
0001
0000
0100
0100
,  // measure 45
0000
0001
0000
0001
,  // measure 46
0000
0000
1000
1000
,  // measure 47
0000
0001
0000
0001
,  // measure 48
0000
1000
0000
1000
,  // measure 49
0000
0001
0000
0001
,  // measure 50
0001
0000
0100
0010
,  // measure 51
0000
0001
0000
0001
,  // measure 52
0001
0000
0100
0000
,  // measure 53
0001
0000
0001
0000
,  // measure 54
0001
0000
0100
0000
,  // measure 55
0010
0000
0001
0000
,  // measure 56
1000
0000
0001
0001
,  // measure 57
0000
1000
0000
0001
,  // measure 58
0001
0000
0100
0100
,  // measure 59
0000
1000
0000
0100
,  // measure 60
0100
0000
0010
0000
,  // measure 61
0000
1000
0000
0000
;
