#VERSION:0.83;
#TITLE:Big Time Rush - Any Kind Of Guy (Easy);
#SUBTITLE:;
#ARTIST:Dancing Monkeys Project;
#TITLETRANSLIT:;
#SUBTITLETRANSLIT:;
#ARTISTTRANSLIT:;
#GENRE:;
#ORIGIN:;
#CREDIT:Gorilla v1.1.3 (Dancing Monkeys v1.06);
#BANNER:;
#BACKGROUND:;
#PREVIEWVID:;
#JACKET:;
#CDIMAGE:;
#DISCIMAGE:;
#LYRICSPATH:;
#CDTITLE:;
#MUSIC:Big Time Rush - Any Kind Of Guy (1).mp3;
#OFFSET:-0.399569;
#SAMPLESTART:33.993675;
#SAMPLELENGTH:12.000000;
#SELECTABLE:YES;
#BPMS:0.000=178.603;
#STOPS:;
#DELAYS:;
#WARPS:;
#TIMESIGNATURES:0.000=4=4;
#TICKCOUNTS:0.000=4;
#COMBOS:0.000=1;
#SPEEDS:0.000=1.000=0.000=0;
#SCROLLS:0.000=1.000;
#FAKES:;
#LABELS:0.000=Song Start;
#BGCHANGES:;
#KEYSOUNDS:;
#ATTACKS:
;

//---------------dance-single - Basic----------------
#NOTEDATA:;
#CHARTNAME:Basic;
#STEPSTYPE:dance-single;
#DESCRIPTION:Basic;
#CHARTSTYLE:;
#DIFFICULTY:Easy;
#METER:1;
#RADARVALUES:0.073983,0.107665,0.000000,0.022714,0.000000,114.000000,114.000000,0.000000,5.000000,0.000000,0.000000,0.000000,0.000000,0.000000,0.073983,0.107665,0.000000,0.022714,0.000000,114.000000,114.000000,0.000000,5.000000,0.000000,0.000000,0.000000,0.000000,0.000000;
#CREDIT:Basic;
#NOTES:
// measure 0
0000
0000
0000
2000
,  // measure 1
0000
0000
0000
0000
,  // measure 2
0000
3020
0000
0000
,  // measure 3
0000
0000
0000
0230
,  // measure 4
0000
0000
0000
0000
,  // measure 5
0000
0000
0302
0000
,  // measure 6
0000
0000
0000
0003
,  // measure 7
0010
0010
0000
1000
,  // measure 8
1000
0000
0100
0000
,  // measure 9
0001
0000
0010
0000
,  // measure 10
0000
1000
0000
0010
,  // measure 11
0000
1000
0000
0010
,  // measure 12
0000
1000
0000
0010
,  // measure 13
0000
0100
0000
0001
,  // measure 14
0000
0010
0000
1000
,  // measure 15
0000
0010
0000
0100
,  // measure 16
0000
0001
0000
0010
,  // measure 17
0000
0100
0000
0010
,  // measure 18
0000
1000
0000
0010
,  // measure 19
0000
0001
0000
0010
,  // measure 20
0000
0100
0000
0000
,  // measure 21
1000
0000
0010
0000
,  // measure 22
0100
0000
0001
0000
,  // measure 23
0010
0000
0100
0000
,  // measure 24
0001
0000
1000
0000
,  // measure 25
0010
0000
0100
0000
,  // measure 26
0001
0000
0010
0000
,  // measure 27
1000
0000
0010
0000
,  // measure 28
0100
0000
0001
0000
,  // measure 29
0010
0000
0100
0000
,  // measure 30
0001
0000
0010
0000
,  // measure 31
0100
0000
0001
0000
,  // measure 32
0010
0000
1000
0000
,  // measure 33
0020
0000
0000
0000
,  // measure 34
0030
1000
0000
1000
,  // measure 35
0000
0010
0000
1000
,  // measure 36
0000
0001
0000
0010
,  // measure 37
0000
0100
0000
0001
,  // measure 38
0000
0010
0000
1000
,  // measure 39
0000
0010
0000
0100
,  // measure 40
0000
0001
0000
0010
,  // measure 41
0000
1000
0000
0100
,  // measure 42
0000
0001
0000
0010
,  // measure 43
0000
0100
0000
0001
,  // measure 44
0000
1000
0000
0010
,  // measure 45
0000
0100
0000
0001
,  // measure 46
0000
1000
0000
0010
,  // measure 47
0000
1000
0000
0001
,  // measure 48
0000
1000
0000
0001
,  // measure 49
0000
1000
0000
0001
,  // measure 50
1000
1000
0001
0001
,  // measure 51
1000
1000
0000
0010
,  // measure 52
0010
0000
0010
0000
,  // measure 53
0000
1000
1000
0000
,  // measure 54
0001
0001
0000
0010
,  // measure 55
0010
0000
0100
0100
,  // measure 56
0000
0010
0010
0000
,  // measure 57
1000
1000
0000
0000
,  // measure 58
0010
0000
1000
0001
,  // measure 59
0000
0100
0000
0000
;
