#VERSION:0.83;
#TITLE:0China Anne McClain - Exceptional (Full Song) Lyrics Video HD (1);
#SUBTITLE:;
#ARTIST:Dancing Monkeys Project;
#TITLETRANSLIT:;
#SUBTITLETRANSLIT:;
#ARTISTTRANSLIT:;
#GENRE:;
#ORIGIN:;
#CREDIT:Gorilla v1.1.3 (Dancing Monkeys v1.06);
#BANNER:;
#BACKGROUND:;
#PREVIEWVID:;
#JACKET:;
#CDIMAGE:;
#DISCIMAGE:;
#LYRICSPATH:;
#CDTITLE:;
#MUSIC:0China Anne McClain - Exceptional (Full Song) Lyrics Video HD (1).mp3;
#OFFSET:-0.399125;
#SAMPLESTART:48.388626;
#SAMPLELENGTH:12.000000;
#SELECTABLE:YES;
#BPMS:0.000=130.028;
#STOPS:;
#DELAYS:;
#WARPS:;
#TIMESIGNATURES:0.000=4=4;
#TICKCOUNTS:0.000=4;
#COMBOS:0.000=1;
#SPEEDS:0.000=1.000=0.000=0;
#SCROLLS:0.000=1.000;
#FAKES:;
#LABELS:0.000=Song Start;
#BGCHANGES:;
#KEYSOUNDS:;
#ATTACKS:
;

//---------------dance-single - Basic----------------
#NOTEDATA:;
#CHARTNAME:Basic;
#STEPSTYPE:dance-single;
#DESCRIPTION:Basic;
#CHARTSTYLE:;
#DIFFICULTY:Easy;
#METER:3;
#RADARVALUES:0.160739,0.166046,0.000000,0.033093,0.000000,170.000000,170.000000,0.000000,5.000000,0.000000,0.000000,0.000000,0.000000,0.000000,0.160739,0.166046,0.000000,0.033093,0.000000,170.000000,170.000000,0.000000,5.000000,0.000000,0.000000,0.000000,0.000000,0.000000;
#CREDIT:Basic;
#NOTES:
// measure 0
0000
0001
0000
0000
,  // measure 1
0000
1000
0000
0000
,  // measure 2
1000
0000
0000
0000
,  // measure 3
0000
1000
0000
0000
,  // measure 4
0001
0000
0010
0010
,  // measure 5
1000
0000
1000
1000
,  // measure 6
1000
0000
0010
0010
,  // measure 7
0010
0000
0001
0001
,  // measure 8
1000
1000
1000
0000
,  // measure 9
0001
0000
0010
0010
,  // measure 10
0010
0000
1000
1000
,  // measure 11
1000
0000
0010
0010
,  // measure 12
0001
0001
0100
0100
,  // measure 13
0000
0001
0001
0001
,  // measure 14
1000
1000
0010
0010
,  // measure 15
0010
0100
0100
0100
,  // measure 16
1000
1000
0010
0010
,  // measure 17
1000
1000
0010
0010
,  // measure 18
2000
0000
0000
3000
,  // measure 19
0002
0000
0000
0003
,  // measure 20
0100
0100
0100
0010
,  // measure 21
0010
0010
0010
1000
,  // measure 22
2000
0000
0000
0000
,  // measure 23
0000
0000
3000
0010
,  // measure 24
0010
1000
1000
1000
,  // measure 25
0100
0100
0010
0010
,  // measure 26
1000
0010
0100
0100
,  // measure 27
0100
0010
0010
0010
,  // measure 28
0100
0100
0010
0010
,  // measure 29
0001
0001
1000
1000
,  // measure 30
0001
0001
0000
0000
,  // measure 31
0100
0100
0000
0000
,  // measure 32
0010
0010
0000
0000
,  // measure 33
0001
0000
0010
0010
,  // measure 34
0010
0000
0000
0100
,  // measure 35
0100
0000
0010
0010
,  // measure 36
0010
0100
0100
1000
,  // measure 37
1000
0001
0001
0010
,  // measure 38
0010
0100
0100
1000
,  // measure 39
1000
0000
0010
0010
,  // measure 40
0100
0100
0100
0000
,  // measure 41
1000
1000
0010
0010
,  // measure 42
0010
0000
1000
1000
,  // measure 43
1000
0000
0010
0010
,  // measure 44
0001
0001
0100
0100
,  // measure 45
0000
0001
0001
0001
,  // measure 46
1000
1000
0010
0010
,  // measure 47
0010
0100
0100
0100
,  // measure 48
1000
1000
0100
0100
,  // measure 49
1000
1000
0010
0010
,  // measure 50
0001
0001
0100
0100
,  // measure 51
0100
1000
1000
1000
,  // measure 52
0010
0010
0010
1000
,  // measure 53
1000
0010
0010
0010
,  // measure 54
2000
0000
0000
3020
,  // measure 55
0000
0000
0000
0030
;

//---------------dance-single - Standard----------------
#NOTEDATA:;
#CHARTNAME:Standard;
#STEPSTYPE:dance-single;
#DESCRIPTION:Standard;
#CHARTSTYLE:;
#DIFFICULTY:Medium;
#METER:4;
#RADARVALUES:0.276093,0.307768,0.033093,0.006619,0.000000,292.000000,287.000000,5.000000,1.000000,0.000000,0.000000,0.000000,0.000000,0.000000,0.276093,0.307768,0.033093,0.006619,0.000000,292.000000,287.000000,5.000000,1.000000,0.000000,0.000000,0.000000,0.000000,0.000000;
#CREDIT:Standard;
#NOTES:
0000
0000
1000
0000
0000
0000
0000
0000
,
0000
0000
1000
0000
0000
0000
0000
0000
,
0001
0000
0000
0000
1000
0000
0000
0000
,
0000
0000
0001
0000
0000
0000
0000
0000
,
1000
0000
0010
0000
1000
0000
0010
0000
,
0001
0000
0100
0000
0001
0000
0100
0000
,
1000
0000
0000
0000
0010
0000
0001
0000
,
0001
0000
0000
0000
0100
0000
1000
0000
,
1000
0000
0010
0000
0100
0000
0010
0000
,
1000
0000
0010
0000
1000
0000
0010
0000
,
1000
0000
0000
0000
0010
0000
0001
0000
,
1000
0000
0000
0000
0010
0000
0001
0000
,
1000
0000
0010
0000
0100
0000
0010
0000
,
1000
0000
0100
0000
1000
0000
0100
0000
,
0001
0000
1000
0000
0010
0000
1000
0000
,
0001
0000
1000
0000
0100
0000
1000
0000
,
1000
0000
0010
0000
1000
0000
0010
0000
,
1000
0000
0010
0100
0010
0000
0010
0000
,
0001
0000
1000
0000
0010
0000
1000
0000
,
1000
0000
0100
0000
0010
0000
0100
0000
,
1000
0000
0010
0000
1000
0000
0010
0000
,
0001
0000
0100
0000
0001
0000
0100
0000
,
0001
0000
1000
0000
0010
0000
1000
0000
,
0001
0000
1000
0000
0100
0000
1000
0000
,
1000
0000
0001
0000
0010
0000
0001
0000
,
1000
0000
0010
0100
0010
0000
0010
0000
,
0001
0000
0010
0100
0010
0000
0010
0000
,
0001
0000
0100
0010
0100
0000
0001
0000
,
1000
0000
0010
0100
0010
0000
0010
0000
,
0001
0000
0100
0010
1000
0000
0100
0000
,
1000
0000
0010
0000
0000
0000
0000
0000
,
0001
0000
0100
0000
0000
0000
0000
0000
,
1000
0000
0010
0000
0000
0000
0000
0000
,
1000
0000
0010
0000
1000
0000
0010
0000
,
1000
0000
0000
0000
0010
0000
1000
0000
,
1000
0000
0000
0000
0010
0000
0001
0000
,
1000
0000
0100
0000
0010
0000
0001
0000
,
1000
0000
0010
0000
0100
0000
0010
0000
,
1000
0000
0100
0000
0010
0000
0001
0000
,
1000
0000
0001
0000
1000
0000
1000
0000
,
1000
0000
0010
0000
0100
0000
0010
0000
,
1000
0000
0010
0000
0100
0000
0010
0000
,
1000
0000
0000
0000
0010
0000
0001
0000
,
1000
0000
0000
0000
0010
0000
0001
0000
,
1000
0000
0010
0000
0100
0000
0010
0000
,
1000
0000
0100
0000
1000
0000
0100
0000
,
0001
0000
1000
0000
0010
0000
1000
0000
,
0001
0000
1000
0000
0010
0000
1000
0000
,
1000
0000
0010
0000
1000
0000
0010
0000
,
1000
0000
0010
0100
0010
0000
0010
0000
,
0001
0000
1000
0000
0010
0000
1000
0000
,
1000
0000
0100
0000
0010
0000
0100
0000
,
0001
0000
1000
0000
0010
0000
1000
0000
,
0001
0000
0100
0010
0100
0000
0001
0000
,
0001
0000
1000
0000
0010
0000
1000
0000
,
1000
0000
1000
0000
0010
0000
0100
0000
,
0001
0000
1000
0000
0010
0000
1000
0000
,
1000
0000
0010
0000
1000
0000
0010
0000
,
1000
0000
0100
0000
0010
0000
0100
0000
,
0001
0000
0100
0000
0010
0000
0100
0000
,
0001
0000
1000
0000
0010
0000
1000
0000
,
0001
0000
0100
0010
0100
0000
0001
0000
,
1000
0000
0100
0000
1000
0000
0010
0000
,
1000
0000
0001
0000
1100
0000
0001
0000
,
1000
0000
0100
0000
1000
0000
0010
0000
,
1000
0000
0010
0100
0010
0000
0010
0000
,
1000
0000
0100
0000
1000
0000
0010
0000
,
0101
0000
0001
0000
0010
0100
1000
0000
,
1000
0000
0100
0000
1000
0000
0010
0000
,
1000
0000
0010
0100
0010
0000
0010
0000
,
0001
0000
0000
0000
1000
0000
0000
0000
,
0001
0000
0000
0000
1000
0000
0000
0000
,
2000
0000
0000
0000
0000
0000
0000
0000
,
0000
0000
0000
0000
0000
0000
0000
0000
,
3000
0000
0001
0000
0101
0000
0100
0000
,
0011
0000
0001
0000
0100
0000
0010
0000
,
0101
0000
0001
0000
0010
0100
1000
0000
,
0001
0000
1000
0000
0100
0000
0000
0000
,
;

//---------------dance-single - Heavy----------------
#NOTEDATA:;
#CHARTNAME:Heavy;
#STEPSTYPE:dance-single;
#DESCRIPTION:Heavy;
#CHARTSTYLE:;
#DIFFICULTY:Hard;
#METER:5;
#RADARVALUES:0.330933,0.359062,0.105899,0.006619,0.000000,350.000000,334.000000,16.000000,1.000000,0.000000,0.000000,0.000000,0.000000,0.000000,0.330933,0.359062,0.105899,0.006619,0.000000,350.000000,334.000000,16.000000,1.000000,0.000000,0.000000,0.000000,0.000000,0.000000;
#CREDIT:Heavy;
#NOTES:
0000
0000
1000
0000
0000
0000
0000
0000
,
0000
0000
0001
0000
0000
0000
0000
0000
,
0001
0000
0000
0000
1000
0000
0000
0000
,
0000
0000
1000
0000
0000
0000
0010
0000
,
0001
0000
0010
0000
0100
0000
0010
0000
,
0001
0000
0010
0000
0100
0000
0010
0000
,
0001
0000
0000
0000
1000
0010
1000
0000
,
1000
0000
0000
0000
0001
0100
0001
0000
,
1000
0000
0001
0000
1000
0000
0000
0100
,
0001
0000
0010
0000
0100
0000
0010
0000
,
0001
0000
0000
0000
1000
0010
1000
0000
,
1000
0000
0000
0000
0001
0100
0001
0000
,
1000
0000
0010
0000
1000
0000
0100
1000
,
0001
0000
0010
0000
0100
0000
1000
0010
,
1000
0000
0100
1000
0001
0000
0010
0000
,
1000
0000
0010
1000
0001
0000
0100
0000
,
1100
0000
1000
0000
0001
0001
0010
0000
,
0001
0000
0010
0100
1000
0000
1000
0000
,
1000
0000
0100
1000
0001
0000
0010
0000
,
1100
0000
1000
0001
0100
0000
0001
0000
,
1100
0000
1000
0000
0001
0001
0010
0000
,
1000
0000
0001
0000
0100
0001
0010
0000
,
1000
0000
0100
1000
0001
0000
0010
0000
,
1000
0000
0010
1000
0001
0000
0100
0000
,
0001
0000
0100
0001
1000
0000
0010
0000
,
0001
0000
0010
0100
1000
0000
1000
0000
,
1000
0000
0100
0010
0001
0000
0001
0000
,
0110
0000
0001
0010
0100
0000
0010
0100
,
0001
0000
0010
0100
1000
0000
1000
0000
,
0001
0000
1000
0010
0100
0010
0100
0000
,
1000
0000
0001
0000
0000
0000
0000
0000
,
1000
0000
0001
0000
0000
0000
0000
0000
,
1000
0000
0001
0000
0000
0000
0000
0000
,
0001
0000
0010
0000
0100
0000
0010
0000
,
1000
0000
0000
0000
0010
0000
1000
0000
,
0001
0000
0000
0000
1000
0010
1000
0000
,
1000
0000
0010
0000
1000
0000
0100
0100
,
1000
0000
0010
0000
1000
0000
0100
1000
,
1000
0000
0010
0000
1000
0000
0100
0100
,
0001
0000
1000
0000
0010
0000
0010
0000
,
1000
0000
0001
0000
1000
0000
0000
0100
,
1000
0000
0010
0000
1000
0000
0100
1000
,
0001
0000
0000
0000
1000
0010
1000
0000
,
1000
0000
0000
0000
0001
0010
0001
0000
,
1000
0000
0010
0000
1000
0000
0100
1000
,
0001
0000
0010
0000
0100
0000
1000
0010
,
1000
0000
0100
1000
0001
0000
0010
0000
,
1000
0000
0100
1000
0001
0000
0010
0000
,
1100
0000
1000
0000
0001
0001
0010
0000
,
0001
0000
0010
0100
1000
0000
1000
0000
,
1000
0000
0100
1000
0001
0000
0010
0000
,
1100
0000
1000
0001
0100
0000
0001
0000
,
1000
0000
0100
1000
0001
0000
0010
0000
,
0110
0000
0001
0010
0100
0000
0010
0100
,
1000
0000
0100
1000
0001
0000
0010
0000
,
1100
0000
0001
0100
0001
0000
0000
0100
,
1000
0000
0100
1000
0001
0000
0010
0000
,
1000
0000
0000
0100
0010
0000
0001
0000
,
1100
0000
1000
0001
0100
0000
0001
0000
,
1010
0000
1000
0001
0010
0000
0001
0000
,
1000
0000
0100
1000
0001
0000
0010
0000
,
0110
0000
0001
0010
0100
0000
0010
0100
,
0001
0000
1000
0000
0010
0000
0100
0010
,
1000
0000
0001
0000
1010
0000
0000
0100
,
0001
0000
1000
0000
0010
0000
0100
0010
,
0001
0000
0010
0100
1000
0000
1000
0000
,
0001
0000
1000
0000
0010
0000
0100
0000
,
0011
0000
0001
0000
1000
0001
0100
0000
,
0001
0000
1000
0000
0010
0000
0100
0010
,
0001
0000
0010
0100
1000
0000
1000
0000
,
0001
0000
0000
0000
1000
0000
0000
0000
,
0001
0000
0000
0000
1000
0000
0000
0000
,
0002
0000
0000
0000
0000
0000
0000
0000
,
0000
0000
0000
0000
0000
0000
0000
0000
,
0003
0000
1000
0000
1001
0000
0001
0000
,
1100
0000
1000
0100
0010
0000
0001
0000
,
0011
0000
0001
0000
1000
0001
0100
0000
,
0001
0000
0010
0001
0100
0000
0000
0000
,
;
