#VERSION:0.83;
#TITLE:Another life (feat. Sonic the Hedgehog);
#SUBTITLE:;
#ARTIST:PINKPANTHRESS;
#TITLETRANSLIT:;
#SUBTITLETRANSLIT:;
#ARTISTTRANSLIT:;
#GENRE:;
#ORIGIN:;
#CREDIT:Gorilla v1.1.3 (Dancing Monkeys v1.06);
#BANNER:maxrgesdefault.png;
#BACKGROUND:images.png;
#PREVIEWVID:;
#JACKET:;
#CDIMAGE:;
#DISCIMAGE:;
#LYRICSPATH:;
#CDTITLE:;
#MUSIC:Another life (feat. Sonic the Hedgehog) -PINKPANTHRESS REMIX-.mp3;
#OFFSET:-0.989478;
#SAMPLESTART:38.490612;
#SAMPLELENGTH:12.000000;
#SELECTABLE:YES;
#BPMS:0.000=159.995;
#STOPS:;
#DELAYS:;
#WARPS:;
#TIMESIGNATURES:0.000=4=4;
#TICKCOUNTS:0.000=4;
#COMBOS:0.000=1;
#SPEEDS:0.000=1.000=0.000=0;
#SCROLLS:0.000=1.000;
#FAKES:;
#LABELS:0.000=Song Start;
#BGCHANGES:;
#KEYSOUNDS:;
#ATTACKS:
;

//---------------dance-single - Basic----------------
#NOTEDATA:;
#CHARTNAME:Basic;
#STEPSTYPE:dance-single;
#DESCRIPTION:Basic;
#CHARTSTYLE:;
#DIFFICULTY:Easy;
#METER:3;
#RADARVALUES:0.170548,0.217077,0.000000,0.027764,0.000000,172.000000,172.000000,0.000000,4.000000,0.000000,0.000000,0.000000,0.000000,0.000000,0.170548,0.217077,0.000000,0.027764,0.000000,172.000000,172.000000,0.000000,4.000000,0.000000,0.000000,0.000000,0.000000,0.000000;
#CREDIT:Basic;
#NOTES:
// measure 0
0000
0000
0000
0000
,  // measure 1
0001
0000
0001
0000
,  // measure 2
1000
0000
0000
1000
,  // measure 3
1000
0000
0010
0010
,  // measure 4
0010
0001
0001
1000
,  // measure 5
1000
0010
0010
0100
,  // measure 6
0100
0000
0010
0010
,  // measure 7
0001
0000
0001
0001
,  // measure 8
1000
0000
0100
0100
,  // measure 9
0001
0000
1000
0000
,  // measure 10
0010
0000
0000
0100
,  // measure 11
0001
0000
0000
0001
,  // measure 12
1000
0000
0001
0001
,  // measure 13
0001
0000
1000
1000
,  // measure 14
1000
0000
0100
0100
,  // measure 15
0001
0001
0000
2000
,  // measure 16
0000
0000
0000
0000
,  // measure 17
3000
0000
1000
0100
,  // measure 18
1000
0000
0001
0100
,  // measure 19
1000
0000
0010
0010
,  // measure 20
1000
0000
0100
0010
,  // measure 21
0001
0000
1000
0100
,  // measure 22
0001
0000
1000
0100
,  // measure 23
0001
0000
0010
0001
,  // measure 24
0001
0000
1000
0100
,  // measure 25
1000
0000
0100
0010
,  // measure 26
0001
0000
0010
0100
,  // measure 27
1000
0000
0010
0010
,  // measure 28
1000
0000
0100
0010
,  // measure 29
0001
0000
1000
0100
,  // measure 30
1000
0000
0001
0010
,  // measure 31
1000
0000
0010
0010
,  // measure 32
0001
0001
1000
0000
,  // measure 33
2000
0000
3000
0000
,  // measure 34
1000
0000
0000
0000
,  // measure 35
0001
0000
0000
0000
,  // measure 36
0100
0000
0000
0000
,  // measure 37
1000
1000
0001
0001
,  // measure 38
0001
0000
0000
0100
,  // measure 39
0001
0000
0000
0001
,  // measure 40
1000
0000
0001
0100
,  // measure 41
0001
0000
1000
0000
,  // measure 42
1000
0000
0000
0100
,  // measure 43
1000
0000
0000
0001
,  // measure 44
1000
0000
0010
1000
,  // measure 45
0001
0000
1000
0000
,  // measure 46
1000
0000
0000
0100
,  // measure 47
0001
0000
0010
0001
,  // measure 48
0001
0000
0010
0001
,  // measure 49
1000
0000
0001
0100
,  // measure 50
0001
0000
1000
0010
,  // measure 51
1000
0000
0001
1000
,  // measure 52
2000
0000
0000
0000
,  // measure 53
3000
0000
1000
0010
,  // measure 54
0001
0000
1000
0010
,  // measure 55
0001
0000
1000
0010
,  // measure 56
1000
0000
0001
0010
,  // measure 57
1000
0000
0010
1000
,  // measure 58
1000
0000
0001
0100
,  // measure 59
0001
0000
1000
0010
,  // measure 60
1000
0000
0010
1000
,  // measure 61
0001
0000
1000
0000
,  // measure 62
1000
0000
0001
0100
,  // measure 63
0001
0000
1000
0010
,  // measure 64
1000
0000
0010
0000
,  // measure 65
1000
0000
0010
0000
,  // measure 66
0001
0000
0000
0000
,  // measure 67
0001
0000
0000
0000
,  // measure 68
0001
0000
0000
0000
,  // measure 69
0002
0000
0003
0000
;
