#VERSION:0.83;
#TITLE:Annihilate;
#SUBTITLE:Spiderverse;
#ARTIST:Metro Boomin;
#TITLETRANSLIT:;
#SUBTITLETRANSLIT:;
#ARTISTTRANSLIT:;
#GENRE:;
#ORIGIN:;
#CREDIT:;
#BANNER:spider-man-across-the-spider-verse-750x400.png;
#BACKGROUND:medium.png;
#PREVIEWVID:;
#JACKET:;
#CDIMAGE:;
#DISCIMAGE:;
#LYRICSPATH:;
#CDTITLE:;
#MUSIC:Metro Boomin & Swae Lee, Lil Wayne, Offset Annihilate Spider-Man_ Across the Spider-Verse.mp3;
#OFFSET:0.000000;
#SAMPLESTART:100.000000;
#SAMPLELENGTH:12.000000;
#SELECTABLE:YES;
#BPMS:0.000=134.000;
#STOPS:;
#DELAYS:0.000=12.020;
#WARPS:;
#TIMESIGNATURES:0.000=4=4;
#TICKCOUNTS:0.000=4;
#COMBOS:0.000=1;
#SPEEDS:0.000=1.000=0.000=0;
#SCROLLS:0.000=1.200,
0.000=1.000;
#FAKES:;
#LABELS:0.000=Song Start;
#BGCHANGES:;
#KEYSOUNDS:;
#ATTACKS:
;

//---------------dance-single - ----------------
#NOTEDATA:;
#CHARTNAME:;
#STEPSTYPE:dance-single;
#DESCRIPTION:;
#CHARTSTYLE:;
#DIFFICULTY:Easy;
#METER:1;
#RADARVALUES:0.139623,0.175789,0.000000,0.020362,0.000000,144.000000,144.000000,0.000000,3.000000,0.000000,0.000000,0.000000,0.000000,0.000000,0.139623,0.175789,0.000000,0.020362,0.000000,144.000000,144.000000,0.000000,3.000000,0.000000,0.000000,0.000000,0.000000,0.000000;
#CREDIT:;
#NOTES:
// measure 0
0000
0000
0000
1000
,  // measure 1
0000
0001
0000
0000
1000
0000
1000
0000
,  // measure 2
1000
1000
1000
0000
,  // measure 3
0100
0000
0010
0000
,  // measure 4
1000
0000
0010
0000
,  // measure 5
0100
0000
0001
0000
,  // measure 6
0010
0000
1000
0000
,  // measure 7
0010
0000
1000
0000
,  // measure 8
0100
0000
0001
0000
,  // measure 9
0100
0000
0001
0000
,  // measure 10
0010
0000
1000
0000
,  // measure 11
0010
0000
0100
0000
,  // measure 12
0001
0000
0010
0000
,  // measure 13
1000
0000
0010
0000
,  // measure 14
0100
0000
2000
0000
,  // measure 15
3000
0000
0010
0000
,  // measure 16
0001
0000
0001
0000
,  // measure 17
0100
0000
0010
0000
,  // measure 18
0010
0000
1000
0000
,  // measure 19
0010
0000
0100
0000
,  // measure 20
0001
0000
0010
0000
,  // measure 21
1000
0000
0100
0000
,  // measure 22
0010
0000
1000
0000
,  // measure 23
0010
0000
0001
0000
,  // measure 24
1000
0000
0010
0000
,  // measure 25
0100
0000
1000
0000
,  // measure 26
0010
0000
0100
0000
,  // measure 27
0001
0000
0010
0000
,  // measure 28
1000
0000
0010
0000
,  // measure 29
0100
0000
1000
0000
,  // measure 30
0010
0000
0100
0000
,  // measure 31
0001
0000
0010
0000
,  // measure 32
1000
0000
0010
0000
,  // measure 33
0100
0000
1000
0000
,  // measure 34
0010
0000
0100
0000
,  // measure 35
0001
0000
0010
0000
,  // measure 36
1000
0000
0010
0000
,  // measure 37
0100
0000
1000
0000
,  // measure 38
0010
0000
0100
0000
,  // measure 39
1000
0000
0010
0000
,  // measure 40
0200
0000
0000
0300
,  // measure 41
0000
1000
0000
0010
,  // measure 42
0000
0100
0000
0001
,  // measure 43
0000
0010
0000
1000
,  // measure 44
0000
0010
0000
0100
,  // measure 45
0000
0100
0000
0001
,  // measure 46
0000
0010
0000
1000
,  // measure 47
0000
0010
0000
0100
,  // measure 48
0000
1000
0000
0010
,  // measure 49
0000
0100
0000
0001
,  // measure 50
0000
0010
0000
1000
,  // measure 51
0000
0010
0000
0100
,  // measure 52
0000
1000
0000
0010
,  // measure 53
0000
1000
0000
0001
,  // measure 54
0000
0010
0000
0100
,  // measure 55
0000
1000
0000
0010
,  // measure 56
0000
0100
0000
1000
,  // measure 57
0000
0010
0000
0100
,  // measure 58
0000
0001
0000
0010
,  // measure 59
0000
1000
0000
0010
,  // measure 60
0000
0100
0000
1000
,  // measure 61
0000
0010
0000
0100
,  // measure 62
0000
0001
0000
0010
,  // measure 63
0000
1000
0000
0010
,  // measure 64
0000
0100
0000
1000
,  // measure 65
0000
0010
0000
0100
,  // measure 66
0000
1000
0000
0010
,  // measure 67
0000
0100
0000
0001
,  // measure 68
0000
0010
0000
1000
,  // measure 69
0000
0010
0000
0100
,  // measure 70
0000
1000
0000
0010
,  // measure 71
0000
0100
0000
0001
,  // measure 72
0000
0020
0000
0000
,  // measure 73
0000
0000
0000
0000
,  // measure 74
0030
0000
0000
0000
;
