#TITLE:American Dragon_ Jake Long - Season 1 Theme Song (FHD1080i);
#SUBTITLE:;
#ARTIST:Dancing Monkeys Project;
#TITLETRANSLIT:;
#SUBTITLETRANSLIT:;
#ARTISTTRANSLIT:;
#GENRE:;
#CREDIT:Gorilla v1.1.3 (Dancing Monkeys v1.06);
#BANNER:maxresdefault.png;
#BACKGROUND:americandragon_1024.png;
#LYRICSPATH:;
#CDTITLE:;
#MUSIC:American Dragon_ Jake Long - Season 1 Theme Song (FHD1080i).mp3;
#OFFSET:-0.596508;
#SAMPLESTART:43.910976;
#SAMPLELENGTH:12.000000;
#SELECTABLE:YES;
#BPMS:0.000000=144.063004
;
#STOPS:
;
#BGCHANGES:;
#KEYSOUNDS:;
#ATTACKS:;

//---------------dance-single - Basic----------------
#NOTES:
     dance-single:
     Basic:
     Easy:
     3:
     0.205375,0.249951,0.000000,0.032673,0.000000,88.000000,88.000000,0.000000,2.000000,0.000000,0.000000,0.205375,0.249951,0.000000,0.032673,0.000000,88.000000,88.000000,0.000000,2.000000,0.000000,0.000000:
0000
0000
0000
0001
,
0000
1000
0000
0010
,
0000
1000
0000
0010
,
0000
1000
0000
0010
,
0000
0100
0000
1000
,
0000
0010
0000
0100
,
0000
0010
0000
0100
,
0000
0001
0000
0001
,
0000
0100
0000
0010
,
0010
0010
0010
1000
,
1000
1000
1000
0000
,
1000
0000
0001
0000
,
0001
0000
0000
0100
,
0100
0100
0000
0010
,
0000
1000
0000
0010
,
0000
1000
0000
1000
,
1000
1000
0000
0010
,
0000
0001
0000
1000
,
1000
0100
0100
0010
,
0010
0001
0001
1000
,
1000
1000
0000
0002
,
0000
0003
0000
1000
,
1000
1000
0000
0010
,
0010
0010
0000
1000
,
1000
0001
0001
1000
,
1000
1000
0000
1000
,
0000
1000
0000
0010
,
0000
1000
0000
1000
,
0000
0100
0000
1000
,
1000
1000
1000
0010
,
0010
0010
0010
0100
,
0100
0100
0100
1000
,
1000
1000
1000
0002
,
0000
0000
0003
0000
,
0001
0000
0000
0000
;

//---------------dance-single - Basic----------------
#NOTES:
     dance-single:
     :
     Medium:
     3:
     0.259053,0.277723,0.016337,0.032673,0.000000,111.000000,110.000000,1.000000,2.000000,0.000000,0.000000,0.259053,0.277723,0.016337,0.032673,0.000000,111.000000,110.000000,1.000000,2.000000,0.000000,0.000000:
0000
0000
0000
0001
,
1000
1000
0001
0000
,
1000
0000
0010
0010
,
1000
1000
0001
0000
,
0001
0000
1000
0000
,
0001
0000
1000
0000
,
0001
0010
0000
0100
,
0001
0000
1000
0001
,
1000
0000
0000
0010
,
0001
0010
0001
1000
,
0100
1000
0010
1000
,
1000
0100
0100
0001
,
0001
0010
0100
0010
,
0100
0100
0000
0010
,
1000
0000
0001
0000
,
1000
0001
0000
1000
,
1000
1000
0001
0001
,
1000
0001
0001
0001
,
1000
1000
0100
0010
,
1000
1000
0001
1000
,
1000
0100
0010
0200
,
0000
0300
0000
0010
,
1000
0001
0000
0010
,
0001
0100
0010
1000
,
0001
1000
0001
1000
,
0001
1000
0010
1001
,
0000
1000
0100
0010
,
0001
1000
0010
1000
,
0001
0100
0010
1000
,
1000
0001
0001
1000
,
1000
0010
0010
0001
,
0001
1000
1000
0010
,
0010
0100
0100
0020
,
0000
0000
0000
0030
,
0010
0000
0000
0000
;
