#VERSION:0.83;
#TITLE:Ja Rule - Always On Time (feat. Ashanti) [Explicit Version];
#SUBTITLE:;
#ARTIST:Dancing Monkeys Project;
#TITLETRANSLIT:;
#SUBTITLETRANSLIT:;
#ARTISTTRANSLIT:;
#GENRE:;
#ORIGIN:;
#CREDIT:Gorilla v1.1.3 (Dancing Monkeys v1.06);
#BANNER:R-1891604-1419972681-7206.png;
#BACKGROUND:b07ea19ad75f10d338ea7fabcff443a7.1000x1000x1.png;
#PREVIEWVID:;
#JACKET:;
#CDIMAGE:;
#DISCIMAGE:;
#LYRICSPATH:;
#CDTITLE:;
#MUSIC:Ja Rule - Always On Time (feat. Ashanti) [Explicit Version].mp3;
#OFFSET:-1.321938;
#SAMPLESTART:34.831184;
#SAMPLELENGTH:12.000000;
#SELECTABLE:YES;
#BPMS:0.000=193.379;
#STOPS:;
#DELAYS:;
#WARPS:;
#TIMESIGNATURES:0.000=4=4;
#TICKCOUNTS:0.000=4;
#COMBOS:0.000=1;
#SPEEDS:0.000=0.800=0.000=0;
#SCROLLS:0.000=1.000;
#FAKES:;
#LABELS:0.000=Song Start;
#BGCHANGES:;
#KEYSOUNDS:;
#ATTACKS:
;

//---------------dance-single - Basic----------------
#NOTEDATA:;
#CHARTNAME:Basic;
#STEPSTYPE:dance-single;
#DESCRIPTION:Basic;
#CHARTSTYLE:;
#DIFFICULTY:Easy;
#METER:3;
#RADARVALUES:0.239321,0.255036,0.000000,0.007996,0.000000,419.000000,419.000000,0.000000,2.000000,0.000000,0.000000,0.000000,0.000000,0.000000,0.239321,0.255036,0.000000,0.007996,0.000000,419.000000,419.000000,0.000000,2.000000,0.000000,0.000000,0.000000,0.000000,0.000000;
#CREDIT:Basic;
#NOTES:
0000
0000
0000
0000
,
1000
0000
0000
0000
,
0001
0000
0000
0010
,
0000
0000
0000
0000
,
0001
0000
0000
0100
,
0000
0000
0000
0000
,
0001
0100
0000
0100
,
0000
1000
0000
0000
,
0000
0001
0000
1000
,
0000
1000
0000
0000
,
0001
0100
0000
0100
,
0000
1000
1000
0000
,
0001
0100
0000
0100
,
1000
1000
0000
0000
,
1000
0010
1000
0000
,
1000
1000
0000
0000
,
0001
1000
0000
0100
,
1000
1000
0000
0000
,
0001
0100
0000
0100
,
1000
1000
0000
0000
,
1000
0010
1000
0000
,
1000
1000
0000
0000
,
0001
0100
0000
0100
,
1000
1000
0000
0000
,
0001
1000
0000
0100
,
1000
1000
0000
0000
,
0001
0100
0000
0010
,
0001
0010
0000
0000
,
1000
0010
1000
0000
,
1000
1000
0000
0000
,
0001
0100
0000
0100
,
0001
0010
0000
0000
,
0001
1000
0000
0100
,
0001
0000
1000
0000
,
1000
0010
1000
0000
,
1000
1000
0000
0000
,
1000
0010
1000
0000
,
1000
1000
0000
0000
,
0001
0100
0000
0100
,
0001
0010
0000
0000
,
0001
1000
0000
0100
,
0001
0000
0000
1000
,
0000
1000
0000
0001
,
1000
0000
0000
0010
,
1000
0010
1000
0000
,
1000
1000
0000
0000
,
1000
0010
1000
0000
,
0001
0000
0000
1000
,
0001
0001
0000
1000
,
1000
0000
0000
0100
,
1000
0010
1000
0000
,
1000
1000
0000
0000
,
1000
0010
1000
0000
,
1000
1000
0000
0000
,
0001
0100
0000
0100
,
0001
0010
0000
0000
,
0001
0010
0000
0100
,
1000
1000
0000
0000
,
0001
0100
0000
0100
,
1000
1000
0000
0000
,
0001
0100
0000
0100
,
1000
1000
0000
0000
,
0001
0100
0000
0100
,
1000
1000
0000
0000
,
0001
1000
0000
0100
,
1000
1000
0000
0000
,
0001
0100
0000
0100
,
1000
1000
0000
0000
,
0001
0100
0000
0100
,
1000
1000
0000
0000
,
0001
0100
0000
0100
,
1000
1000
0000
0000
,
0001
1000
0000
0100
,
2000
0000
0000
3000
,
0000
0001
0000
0000
,
0000
1000
0000
0000
,
0000
1000
0000
0000
,
0000
0001
0000
0000
,
1000
0000
1000
0000
,
0000
1000
0000
0000
,
2000
0000
0000
3000
,
0001
0010
0000
0000
,
0100
1000
0010
0000
,
0001
0010
0000
0000
,
1000
0010
1000
0000
,
1000
0000
0000
0100
,
0001
0100
0000
0100
,
0001
0010
0000
0000
,
0001
1000
0000
0100
,
0001
0010
0000
0000
,
0001
0100
0000
0010
,
0001
0010
0000
0000
,
1000
0010
1000
0000
,
1000
0000
0000
0100
,
0001
0000
0010
0001
,
1000
0001
0000
0100
,
0001
1000
0000
0100
,
1000
0000
0000
0100
,
0001
0100
0000
0100
,
1000
0000
0000
0100
,
0001
0100
0000
0100
,
0001
0010
0000
0000
,
0001
0100
0000
0100
,
0000
0001
0000
0000
,
0001
0010
0000
0100
,
1000
1000
0000
0000
,
0001
0100
0000
0100
,
1000
1000
0000
0000
,
0001
0100
0000
0100
,
1000
1000
0000
0000
,
0001
0100
0000
0100
,
1000
1000
0000
0000
,
0001
1000
0000
0100
,
1000
1000
0000
0000
,
0001
0100
0000
0100
,
1000
1000
0000
0000
,
0001
0100
0000
0100
,
1000
1000
0000
0000
,
0001
0100
0000
0100
,
0001
0010
0000
0000
,
0001
1000
0000
0100
,
0001
1000
0000
0000
,
0001
0100
0000
0100
,
1000
1000
0000
0000
,
1000
0010
1000
0000
,
0001
0010
0000
0000
,
0001
0100
0000
0100
,
0001
0010
0000
0000
,
0001
1000
0000
0100
,
1000
1000
0000
0000
,
0001
0100
0000
0100
,
1000
1000
0000
0000
,
0001
0100
0000
0100
,
1000
0000
0000
0100
,
0001
0100
0000
0100
,
0001
0010
0000
0000
,
0001
0100
0000
0100
,
0000
0000
0000
0001
,
0001
0100
0000
0010
,
1000
0000
0000
0100
,
1000
0010
1000
0000
,
1000
1000
0000
0000
,
0001
0100
0000
0100
,
1000
1000
0000
0000
,
0001
1000
0000
0100
,
1000
0000
0000
0100
,
0001
0100
0000
0010
,
0001
0000
0000
1000
,
0001
0100
0000
0100
,
0001
0010
0000
0000
,
0001
0100
0000
0100
,
0001
0010
0000
0000
,
0000
1000
0000
0100
,
1000
1000
0000
0000
,
0001
0100
0000
0010
,
1000
1000
0000
0000
,
0001
0100
0000
0100
,
1000
1000
0000
0000
,
0001
0100
0000
0100
,
1000
1000
0000
0000
,
0001
1000
0000
0100
,
1000
1000
0000
0000
,
0001
0100
0000
0100
,
1000
1000
0000
0000
,
0001
0100
0000
0100
,
1000
1000
0000
0000
,
0001
0100
0000
0100
,
1000
1000
0000
0000
,
0001
1000
0000
0100
,
1000
1000
0000
0000
,
0001
0100
0000
0100
,
1000
1000
0000
0000
,
0001
0100
0000
0100
,
1000
1000
0000
0000
,
1000
0010
0000
0000
,
1000
0000
0000
0100
,
0000
1000
0000
0000
,
0000
0000
0000
0000
,
0000
0000
0000
0001
,
1000
0000
0000
0100
,
0000
0000
0000
0001
,
0000
0000
0000
1000
,
0000
1000
0000
0000
;
