#TITLE:ja rule- always on time! (sped up);
#SUBTITLE:;
#ARTIST:Dancing Monkeys Project;
#TITLETRANSLIT:;
#SUBTITLETRANSLIT:;
#ARTISTTRANSLIT:;
#GENRE:;
#CREDIT:Gorilla v1.1.3 (Dancing Monkeys v1.06);
#BANNER:b07ea19ad75f10d338ea7fabcff443a7.1000x1000x1.png;
#BACKGROUND:R-1891604-1419972681-7206.png;
#LYRICSPATH:;
#CDTITLE:;
#MUSIC:ja rule- always on time! (sped up).mp3;
#OFFSET:-0.074292;
#SAMPLESTART:54.778290;
#SAMPLELENGTH:12.000000;
#SELECTABLE:YES;
#BPMS:0.000000=114.068001
;
#STOPS:
;
#BGCHANGES:;
#KEYSOUNDS:;
#ATTACKS:;

//---------------dance-single - Basic----------------
#NOTES:
     dance-single:
     Basic:
     Easy:
     4:
     0.090163,0.094301,0.000000,0.000000,0.000000,128.000000,128.000000,0.000000,0.000000,0.000000,0.000000,0.090163,0.094301,0.000000,0.000000,0.000000,128.000000,128.000000,0.000000,0.000000,0.000000,0.000000:
// measure 0
1000
0000
0000
0000
,  // measure 1
1000
0000
0000
0000
,  // measure 2
1000
0000
0000
0010
,  // measure 3
1000
0000
0001
0000
,  // measure 4
0001
0000
1000
0000
,  // measure 5
1000
0000
0010
1000
,  // measure 6
1000
0000
0001
0000
,  // measure 7
0001
0000
1000
0000
,  // measure 8
1000
0000
0001
0000
,  // measure 9
1000
0000
0010
0000
,  // measure 10
1000
0000
0001
0000
,  // measure 11
1000
0000
0001
0000
,  // measure 12
1000
0000
0001
0000
,  // measure 13
1000
0000
0010
0000
,  // measure 14
1000
0000
0001
0000
,  // measure 15
0100
0000
1000
0000
,  // measure 16
1000
0000
0001
0000
,  // measure 17
1000
0000
0100
0000
,  // measure 18
0001
0000
0100
0000
,  // measure 19
1000
0000
1000
0000
,  // measure 20
0010
0000
0001
0000
,  // measure 21
1000
0000
0010
0000
,  // measure 22
1000
0000
1000
0000
,  // measure 23
0010
0000
0100
0000
,  // measure 24
1000
0000
0100
0000
,  // measure 25
0001
0000
0010
0000
,  // measure 26
1000
0000
0010
0000
,  // measure 27
1000
0000
0100
0000
,  // measure 28
1000
0000
0001
0000
,  // measure 29
0001
0000
1000
0000
,  // measure 30
1000
0000
0001
0000
,  // measure 31
1000
0000
0001
0000
,  // measure 32
0001
0000
1000
0000
,  // measure 33
1000
0000
0000
1000
,  // measure 34
1000
0000
0001
0000
,  // measure 35
0001
0000
1000
0000
,  // measure 36
1000
0000
0001
0000
,  // measure 37
1000
0000
0010
0000
,  // measure 38
1000
0000
1000
0000
,  // measure 39
0001
0000
0100
0000
,  // measure 40
0001
0000
0100
0000
,  // measure 41
1000
0000
0010
0000
,  // measure 42
0001
0000
0010
0000
,  // measure 43
1000
0000
0001
0000
,  // measure 44
1000
0000
0001
0000
,  // measure 45
0010
0000
1000
0000
,  // measure 46
1000
0000
0100
0000
,  // measure 47
1000
0000
0001
0000
,  // measure 48
1000
0000
0010
0000
,  // measure 49
1000
0000
0010
0000
,  // measure 50
1000
0000
0100
0000
,  // measure 51
1000
0000
0010
0000
,  // measure 52
1000
0000
0100
0000
,  // measure 53
0001
0000
0100
0000
,  // measure 54
0010
0000
1000
0000
,  // measure 55
0100
0000
0001
0000
,  // measure 56
1000
0000
0001
0000
,  // measure 57
1000
0000
0010
0000
,  // measure 58
1000
0000
0100
0000
,  // measure 59
0001
0000
1000
0000
,  // measure 60
0001
0000
0010
0000
,  // measure 61
1000
0000
0010
0000
,  // measure 62
0001
0000
1000
0000
,  // measure 63
0001
1000
0000
0001
;
