#VERSION:0.83;
#TITLE:All Grown Up!;
#SUBTITLE:;
#ARTIST:Nickelodeon;
#TITLETRANSLIT:;
#SUBTITLETRANSLIT:;
#ARTISTTRANSLIT:;
#GENRE:;
#ORIGIN:;
#CREDIT:Gorilla v1.1.3 (Dancing Monkeys v1.06);
#BANNER:hq720.png;
#BACKGROUND:all-grown-up!.png;
#PREVIEWVID:;
#JACKET:;
#CDIMAGE:;
#DISCIMAGE:;
#LYRICSPATH:;
#CDTITLE:;
#MUSIC:All Grown Up! Theme Song (HQ) Episode Opening Credits Nick Animation.mp3;
#OFFSET:-1.797528;
#SAMPLESTART:46.350090;
#SAMPLELENGTH:12.000000;
#SELECTABLE:YES;
#BPMS:0.000=140.059;
#STOPS:;
#DELAYS:;
#WARPS:;
#TIMESIGNATURES:0.000=4=4;
#TICKCOUNTS:0.000=4;
#COMBOS:0.000=1;
#SPEEDS:0.000=1.000=0.000=0;
#SCROLLS:0.000=1.000;
#FAKES:;
#LABELS:0.000=Song Start;
#BGCHANGES:;
#KEYSOUNDS:;
#ATTACKS:
;

//---------------dance-single - Basic----------------
#NOTEDATA:;
#CHARTNAME:Basic;
#STEPSTYPE:dance-single;
#DESCRIPTION:Basic;
#CHARTSTYLE:;
#DIFFICULTY:Easy;
#METER:3;
#RADARVALUES:0.126043,0.124809,0.000000,0.029410,0.000000,60.000000,60.000000,0.000000,2.000000,0.000000,0.000000,0.000000,0.000000,0.000000,0.126043,0.124809,0.000000,0.029410,0.000000,60.000000,60.000000,0.000000,2.000000,0.000000,0.000000,0.000000,0.000000,0.000000;
#CREDIT:Basic;
#NOTES:
// measure 0
0001
0001
0000
0001
,  // measure 1
0001
0001
0000
0010
,  // measure 2
0010
0010
0000
1000
,  // measure 3
1000
1000
1000
0000
,  // measure 4
0001
0001
0001
0000
,  // measure 5
0010
0010
0000
0001
,  // measure 6
0001
0001
0001
0000
,  // measure 7
1000
1000
1000
0000
,  // measure 8
0100
0100
0100
0000
,  // measure 9
0001
0001
0001
0000
,  // measure 10
0010
0010
0010
0000
,  // measure 11
1000
1000
1000
0000
,  // measure 12
0001
0001
0001
0000
,  // measure 13
0100
0100
0100
0000
,  // measure 14
1000
1000
1000
0000
,  // measure 15
0001
0000
0010
0000
,  // measure 16
1000
1000
1000
0000
,  // measure 17
0010
0000
0001
0000
,  // measure 18
1000
1000
1000
0000
,  // measure 19
2000
0000
0000
0000
,  // measure 20
3000
0010
0010
0010
,  // measure 21
0000
0000
2000
0000
,  // measure 22
0000
0000
0000
0000
,  // measure 23
0000
0000
0000
0000
,  // measure 24
0000
3000
0000
0000
;

//---------------dance-single - Basic----------------
#NOTEDATA:;
#CHARTNAME:;
#STEPSTYPE:dance-single;
#DESCRIPTION:Basic;
#CHARTSTYLE:;
#DIFFICULTY:Medium;
#METER:3;
#RADARVALUES:0.132345,0.142639,0.000000,0.029410,0.000000,63.000000,63.000000,0.000000,2.000000,0.000000,0.000000,0.000000,0.000000,0.000000,0.132345,0.142639,0.000000,0.029410,0.000000,63.000000,63.000000,0.000000,2.000000,0.000000,0.000000,0.000000,0.000000,0.000000;
#CREDIT:;
#NOTES:
0001
0100
0000
0001
,
0001
0001
0000
0010
,
0010
0001
0000
1000
,
0100
1000
1000
0000
,
0001
0001
0000
0010
,
0001
0010
0000
0001
,
0001
0001
0000
0010
,
1000
0010
1000
0000
,
1000
0001
0100
0000
,
0001
0100
0001
0000
,
0001
0010
0100
0000
,
0001
1000
0010
0000
,
0001
1000
1000
0000
,
1000
0100
0010
0000
,
1000
1000
1000
0100
,
0001
1000
0010
0000
,
1000
0010
1000
0000
,
0001
0001
0001
0000
,
1000
1000
1000
0000
,
2000
0000
0000
0000
,
3000
0010
0100
0001
,
0000
0000
2000
0000
,
0000
0000
0000
0000
,
0000
0000
0000
0000
,
0000
3000
0000
0000
;
