#TITLE:All 2 U;
#SUBTITLE:Stolas Song;
#ARTIST:Helluva Boss;
#TITLETRANSLIT:;
#SUBTITLETRANSLIT:;
#ARTISTTRANSLIT:;
#GENRE:;
#CREDIT:Gorilla v1.1.3 (Dancing Monkeys v1.06);
#BANNER:;
#BACKGROUND:;
#LYRICSPATH:;
#CDTITLE:;
#MUSIC:all 2 u - helluva boss (sped up).mp3;
#OFFSET:-1.141406;
#SAMPLESTART:34.925987;
#SAMPLELENGTH:12.000000;
#SELECTABLE:YES;
#BPMS:0.000000=132.000000
;
#STOPS:
;
#BGCHANGES:;
#KEYSOUNDS:;
#ATTACKS:;

//---------------dance-single - Basic----------------
#NOTES:
     dance-single:
     Basic:
     Easy:
     3:
     0.098101,0.186566,0.006077,0.170158,0.000000,113.000000,112.000000,1.000000,28.000000,0.000000,0.000000,0.098101,0.186566,0.006077,0.170158,0.000000,113.000000,112.000000,1.000000,28.000000,0.000000,0.000000:
// measure 0
1000
0000
0100
0000
,  // measure 1
1000
0000
0000
0010
,  // measure 2
0000
1000
1000
0000
,  // measure 3
0000
0001
0001
0001
,  // measure 4
0001
0000
0010
0000
,  // measure 5
2000
0000
0000
0000
,  // measure 6
3000
0000
1000
0000
,  // measure 7
0020
0000
0000
0030
,  // measure 8
0000
0000
0000
0002
,  // measure 9
0000
0000
0003
0000
,  // measure 10
2000
0000
0000
0000
,  // measure 11
3000
0000
0000
0020
,  // measure 12
0000
0000
0000
0000
,  // measure 13
0030
0000
1000
0000
,  // measure 14
0001
0000
0010
0000
,  // measure 15
1000
0000
0001
0000
,  // measure 16
0001
0000
1000
0000
,  // measure 17
0000
0002
0000
0000
,  // measure 18
0003
0000
0001
0001
,  // measure 19
0000
0000
0000
1000
,  // measure 20
0000
0002
0003
0000
,  // measure 21
2000
3000
0000
0020
,  // measure 22
0000
0030
0000
0000
,  // measure 23
2000
0000
0000
3000
,  // measure 24
0002
0000
0000
0000
,  // measure 25
0003
0000
0000
0000
,  // measure 26
0000
0000
0000
2000
,  // measure 27
0000
3000
0000
0001
,  // measure 28
0000
0000
1000
0000
,  // measure 29
1000
0000
0002
0000
,  // measure 30
0000
0003
0000
1000
,  // measure 31
0000
0200
0000
0300
,  // measure 32
0000
0001
0000
1000
,  // measure 33
0000
1000
1000
0000
,  // measure 34
0000
0001
0000
0010
,  // measure 35
0000
0001
0000
1000
,  // measure 36
0000
1000
0000
2000
,  // measure 37
0000
0000
0000
3000
,  // measure 38
0000
0010
0000
0000
,  // measure 39
1000
0000
0000
0001
,  // measure 40
0000
0000
0100
0000
,  // measure 41
0000
0001
0000
1000
,  // measure 42
1000
0001
0000
0020
,  // measure 43
0000
0000
0030
0000
,  // measure 44
0000
1000
0000
0001
,  // measure 45
0000
0010
0000
0100
,  // measure 46
0000
0001
0000
0010
,  // measure 47
0000
1000
0000
0000
,  // measure 48
0010
0000
2000
0000
,  // measure 49
0000
0000
3000
0000
,  // measure 50
1000
0000
0010
0000
,  // measure 51
1000
0000
0010
0000
,  // measure 52
0001
0000
1000
0000
,  // measure 53
0010
0000
2000
0000
,  // measure 54
0000
0000
3000
0000
,  // measure 55
0000
0001
0000
0010
,  // measure 56
0000
0001
0000
0100
,  // measure 57
0000
1000
0000
0100
,  // measure 58
0000
0001
0001
0000
,  // measure 59
1000
1000
0000
0001
,  // measure 60
0001
0001
0001
0001
,  // measure 61
0002
0000
0000
0000
,  // measure 62
0003
0000
0000
1001
,  // measure 63
0000
0000
1000
0000
,  // measure 64
0010
0000
0001
0000
,  // measure 65
0001
0000
0010
0000
,  // measure 66
1000
0000
0010
0000
,  // measure 67
0001
0000
0100
0000
,  // measure 68
0001
0000
2000
0000
,  // measure 69
3000
0002
0000
0003
,  // measure 70
2000
0000
0000
0000
,  // measure 71
3000
0000
0002
0000
,  // measure 72
0003
2000
0000
3000
,  // measure 73
0002
0000
0000
0003
,  // measure 74
0000
0000
2000
0000
,  // measure 75
3000
0002
0000
0003
,  // measure 76
2000
0000
0000
3000
;
