#TITLE:Aladdin;
#SUBTITLE:;
#ARTIST:Disney;
#TITLETRANSLIT:;
#SUBTITLETRANSLIT:;
#ARTISTTRANSLIT:;
#GENRE:;
#CREDIT:;
#BANNER:;
#BACKGROUND:;
#LYRICSPATH:;
#CDTITLE:;
#MUSIC:Aladdin_ One Jump Ahead Sing-Along Disney.mp3;
#OFFSET:0.000000;
#SAMPLESTART:100.000000;
#SAMPLELENGTH:12.000000;
#SELECTABLE:YES;
#BPMS:0.000000=126.999992
;
#STOPS:
;
#BGCHANGES:;
#KEYSOUNDS:;
#ATTACKS:;

//---------------dance-single - ----------------
#NOTES:
     dance-single:
     :
     Easy:
     1:
     0.098896,0.103175,0.000000,0.026626,0.000000,104.000000,104.000000,0.000000,4.000000,0.000000,0.000000,0.098896,0.103175,0.000000,0.026626,0.000000,104.000000,104.000000,0.000000,4.000000,0.000000,0.000000:
// measure 0
0000
0000
0000
0000
,  // measure 1
1000
0000
0010
0000
,  // measure 2
1000
0000
0100
0000
,  // measure 3
0001
0000
0010
0000
,  // measure 4
0100
0000
1000
0000
,  // measure 5
0100
0000
0010
0000
,  // measure 6
0100
0000
0001
0000
,  // measure 7
0010
0000
0100
0000
,  // measure 8
1000
0000
0010
0000
,  // measure 9
0100
0000
0001
0000
,  // measure 10
0010
0000
0100
0000
,  // measure 11
1000
0000
2000
0000
,  // measure 12
0000
0000
0000
0000
,  // measure 13
0000
3000
0000
0100
,  // measure 14
0000
1000
0000
0100
,  // measure 15
0000
0010
0000
1000
,  // measure 16
0000
0100
0000
0001
,  // measure 17
0000
0010
0000
0100
,  // measure 18
0000
1000
0000
0100
,  // measure 19
0000
0010
0000
1000
,  // measure 20
0000
0100
0000
0010
,  // measure 21
0000
1000
0000
0100
,  // measure 22
0000
0001
0000
0010
,  // measure 23
0000
0100
0000
1000
,  // measure 24
0000
0100
0000
0010
,  // measure 25
0000
0001
0000
0010
,  // measure 26
0000
0100
0000
0010
,  // measure 27
0000
1000
0000
0010
,  // measure 28
0000
0100
0000
0001
,  // measure 29
0000
0010
0000
1000
,  // measure 30
0000
0100
0000
1000
,  // measure 31
0000
0100
0000
0010
,  // measure 32
0000
0001
0000
0010
,  // measure 33
0000
1000
0000
0100
,  // measure 34
0000
0010
0000
1000
,  // measure 35
0000
0100
0000
0001
,  // measure 36
0000
0010
0000
0100
,  // measure 37
0000
1000
0000
0100
,  // measure 38
0000
0010
0000
0002
,  // measure 39
0000
0000
0000
0000
,  // measure 40
0000
0003
0000
1000
,  // measure 41
0000
0010
0000
0200
,  // measure 42
0000
0000
0000
0300
,  // measure 43
0000
0000
0000
0000
,  // measure 44
0000
1000
0000
0000
,  // measure 45
0010
0000
0000
0100
,  // measure 46
0000
0000
0010
0000
,  // measure 47
0000
1000
0000
0000
,  // measure 48
0010
0000
0000
1000
,  // measure 49
0000
0000
0010
0000
,  // measure 50
0000
0100
0000
0000
,  // measure 51
0001
0000
0000
0010
,  // measure 52
0000
0000
0010
0000
,  // measure 53
0000
0100
0000
0000
,  // measure 54
1000
0000
0000
0010
,  // measure 55
0000
0100
0000
0010
,  // measure 56
0000
1000
0000
0010
,  // measure 57
0000
0100
0000
0001
,  // measure 58
0000
0010
0000
0100
,  // measure 59
0000
1000
0000
0100
,  // measure 60
0000
0010
0000
0100
,  // measure 61
0000
0020
0000
0000
,  // measure 62
0030
0000
0000
0000
;
