#TITLE:Aku Rave;
#SUBTITLE:AKU RAVE;
#ARTIST:SAMURAI JACK;
#TITLETRANSLIT:;
#SUBTITLETRANSLIT:;
#ARTISTTRANSLIT:;
#GENRE:;
#CREDIT:;
#BANNER:samuraijack.png;
#BACKGROUND:bandicam 2020-12-06 15-33-31-381.mp4_20201206_182427.png;
#LYRICSPATH:;
#CDTITLE:;
#MUSIC:Samurai Jack - RAVE.mp3;
#OFFSET:0.000000;
#SAMPLESTART:100.000000;
#SAMPLELENGTH:12.000000;
#SELECTABLE:YES;
#BPMS:0.000000=160.000000
;
#STOPS:
;
#BGCHANGES:;
#KEYSOUNDS:;
#ATTACKS:;

//---------------dance-single - ----------------
#NOTES:
     dance-single:
     :
     Easy:
     1:
     0.376174,0.297359,0.000000,0.000000,0.000000,528.000000,528.000000,0.000000,0.000000,0.000000,0.000000,0.376174,0.297359,0.000000,0.000000,0.000000,528.000000,528.000000,0.000000,0.000000,0.000000,0.000000:
0000
0000
0000
0010
,
0001
1000
0010
1000
,
0100
0001
0100
0001
,
0010
0100
1000
0010
,
0001
1000
0100
0010
,
1000
0001
1000
0100
,
0010
1000
0100
0001
,
0010
1000
0100
0010
,
0001
1000
0100
0010
,
0001
0100
0001
1000
,
0100
0010
0001
0100
,
0100
0001
0001
0001
,
0010
0010
0100
0100
,
0001
0001
0100
0100
,
0100
0010
0010
0010
,
1000
1000
0100
0100
,
0001
0001
0010
0010
,
0100
0100
0100
0010
,
0010
0001
0001
0100
,
0100
1000
1000
0100
,
0100
1000
1000
0100
,
0100
0010
0010
0100
,
0100
1000
0100
0010
,
0001
1000
0100
0001
,
0010
1000
0010
1000
,
0100
0001
1000
0010
,
0100
0001
0010
0100
,
0001
1000
0010
0100
,
0001
1000
0010
0100
,
1000
0010
0100
0001
,
0010
1000
0100
0010
,
0001
0010
0100
1000
,
0010
0100
0001
0010
,
1000
0010
0100
0001
,
0100
0010
1000
0010
,
1000
0010
0001
0100
,
0001
1000
0010
0100
,
0001
0010
0100
1000
,
0010
0100
0001
0010
,
0100
0001
0010
0100
,
1000
0010
0100
0001
,
0010
0100
0010
1000
,
0010
0100
0001
0010
,
1000
0010
1000
0010
,
0100
0001
0010
0100
,
0001
1000
0010
0100
,
0001
0010
0100
0010
,
1000
0001
0010
0100
,
0001
0010
0100
0001
,
0010
0100
0001
0010
,
0100
1000
0010
0100
,
0001
0010
0100
0001
,
0010
0100
0001
0010
,
0100
0010
1000
0001
,
0010
0100
0001
0010
,
1000
0100
0010
0001
,
0010
0100
0001
0010
,
0100
0001
0010
0100
,
0010
1000
0001
0010
,
0100
0001
0010
0100
,
0010
1000
0010
0100
,
0001
0010
0100
0001
,
0010
0100
0001
0100
,
0001
1000
0010
0100
,
0001
0010
0100
0010
,
0001
1000
0100
0010
,
0100
0100
0010
0010
,
1000
1000
0001
0001
,
0100
0001
0100
0001
,
1000
0010
0100
0001
,
0100
0010
1000
0010
,
0100
0001
0100
0010
,
1000
0001
0010
0100
,
0001
0010
0100
0001
,
0010
0100
0010
1000
,
0100
0001
0100
0010
,
0100
0010
1000
0001
,
1000
0001
1000
0001
,
0010
0001
0001
0100
,
0100
1000
1000
0100
,
0100
0010
0010
1000
,
1000
1000
0001
0001
,
0001
0010
0010
0010
,
0100
0100
0100
0001
,
0001
0001
0010
0010
,
0010
0100
0100
0010
,
0010
0100
0100
1000
,
0010
0010
1000
0010
,
0100
0001
0010
0100
,
0001
0010
1000
0100
,
0010
0001
0100
0010
,
1000
1000
0010
0010
,
1000
1000
0100
0100
,
0001
0001
1000
1000
,
0001
0001
0010
0010
,
1000
1000
0010
0010
,
0001
0010
0100
1000
,
0010
0001
0001
0010
,
1000
1000
0010
0010
,
0010
1000
0010
0100
,
0010
0100
0010
1000
,
0010
0001
0100
0010
,
0100
0001
0010
0100
,
1000
0010
0001
0100
,
0010
1000
0010
1000
,
0100
0010
0100
0010
,
1000
0001
0100
0010
,
0001
1000
0010
0100
,
0001
0100
0010
1000
,
0001
0100
0010
0100
,
1000
0001
0100
0010
,
0001
0100
0010
1000
,
0010
0001
0100
1000
,
0010
0100
0001
0100
,
0010
1000
0001
0100
,
0010
1000
0100
0010
,
0001
0100
1000
0010
,
0001
1000
0001
1000
,
0001
1000
0001
1000
,
0001
1000
0001
1000
,
0001
0100
0001
0100
,
0001
0100
0001
0100
,
0001
0100
0010
1000
,
0010
1000
0010
1000
,
0010
1000
0010
0001
,
1000
0001
1000
0001
,
1000
0001
1000
0001
,
1000
0001
0100
0010
,
0100
0010
0100
0010
,
0100
0010
1000
0001
,
0100
0010
0010
0010
,
1000
1000
1000
0001
,
0001
0001
0100
0000
;

//---------------dance-single - ----------------
#NOTES:
     dance-single:
     :
     Beginner:
     1:
     0.185237,0.162083,0.000000,0.000000,0.000000,260.000000,260.000000,0.000000,0.000000,0.000000,0.000000,0.185237,0.162083,0.000000,0.000000,0.000000,260.000000,260.000000,0.000000,0.000000,0.000000,0.000000:
// measure 0
0000
0000
0000
0010
,  // measure 1
0000
1000
0000
1000
,  // measure 2
0000
0001
0000
0001
,  // measure 3
0000
0100
0000
0010
,  // measure 4
0000
1000
0000
0010
,  // measure 5
0000
0001
0000
0100
,  // measure 6
0000
1000
0000
0001
,  // measure 7
0000
1000
0000
0010
,  // measure 8
0000
1000
0000
0010
,  // measure 9
0000
0100
0000
1000
,  // measure 10
0000
0010
0000
0100
,  // measure 11
0000
0001
0000
0001
,  // measure 12
0000
0010
0000
0100
,  // measure 13
0000
0001
0000
0100
,  // measure 14
0000
0010
0000
0010
,  // measure 15
0000
1000
0000
0100
,  // measure 16
0000
0001
0000
0010
,  // measure 17
0000
0100
0000
0010
,  // measure 18
0000
0001
0000
0100
,  // measure 19
0000
1000
0000
0100
,  // measure 20
0000
1000
0000
0100
,  // measure 21
0000
0010
0000
0100
,  // measure 22
0000
1000
0000
0010
,  // measure 23
0000
1000
0000
0001
,  // measure 24
0000
1000
0000
1000
,  // measure 25
0000
0001
0000
0010
,  // measure 26
0000
0001
0000
0100
,  // measure 27
0000
1000
0000
0100
,  // measure 28
0000
1000
0000
0100
,  // measure 29
0000
0010
0000
0001
,  // measure 30
0000
1000
0000
0010
,  // measure 31
0000
0010
0000
1000
,  // measure 32
0000
0100
0000
0010
,  // measure 33
0000
0010
0000
0001
,  // measure 34
0000
0010
0000
0010
,  // measure 35
0000
0010
0000
0100
,  // measure 36
0000
1000
0000
0100
,  // measure 37
0000
0010
0000
1000
,  // measure 38
0000
0100
0000
0010
,  // measure 39
0000
0001
0000
0100
,  // measure 40
0000
0010
0000
0001
,  // measure 41
0000
0100
0000
1000
,  // measure 42
0000
0100
0000
0010
,  // measure 43
0000
0010
0000
0010
,  // measure 44
0000
0001
0000
0100
,  // measure 45
0000
1000
0000
0100
,  // measure 46
0000
0010
0000
0010
,  // measure 47
0000
0001
0000
0100
,  // measure 48
0000
0010
0000
0001
,  // measure 49
0000
0100
0000
0010
,  // measure 50
0000
1000
0000
0100
,  // measure 51
0000
0010
0000
0001
,  // measure 52
0000
0100
0000
0010
,  // measure 53
0000
0010
0000
0001
,  // measure 54
0000
0100
0000
0010
,  // measure 55
0000
0100
0000
0001
,  // measure 56
0000
0100
0000
0010
,  // measure 57
0000
0001
0000
0100
,  // measure 58
0000
1000
0000
0010
,  // measure 59
0000
0001
0000
0100
,  // measure 60
0000
1000
0000
0100
,  // measure 61
0000
0010
0000
0001
,  // measure 62
0000
0100
0000
0100
,  // measure 63
0000
1000
0000
0100
,  // measure 64
0000
0010
0000
0010
,  // measure 65
0000
1000
0000
0010
,  // measure 66
0000
0100
0000
0010
,  // measure 67
0000
1000
0001
0000
,  // measure 68
0100
0000
0100
0000
,  // measure 69
1000
0000
0100
0000
,  // measure 70
0100
0000
1000
0000
,  // measure 71
0100
0000
0100
0000
,  // measure 72
1000
0000
0010
0000
,  // measure 73
0001
0000
0100
0000
,  // measure 74
0010
0000
0010
0000
,  // measure 75
0100
0000
1000
0000
,  // measure 76
0100
0000
1000
0000
,  // measure 77
0010
0000
1000
0000
,  // measure 78
0010
0000
0001
0000
,  // measure 79
0100
0000
1000
0000
,  // measure 80
0100
0000
0010
0000
,  // measure 81
1000
0000
0010
0000
,  // measure 82
0001
0000
0010
0000
,  // measure 83
1000
0000
0100
0000
,  // measure 84
0001
0000
0100
0000
,  // measure 85
0010
0000
0100
0000
,  // measure 86
0010
0000
0100
0000
,  // measure 87
0010
0000
1000
0000
,  // measure 88
0100
0000
0010
0000
,  // measure 89
0001
0000
1000
0000
,  // measure 90
0010
0000
0100
0000
,  // measure 91
1000
0000
0010
0000
,  // measure 92
1000
0000
0100
0000
,  // measure 93
0001
0000
1000
0000
,  // measure 94
0001
0000
0010
0000
,  // measure 95
1000
0000
0010
0000
,  // measure 96
0001
0000
0100
0000
,  // measure 97
0010
0000
0001
0000
,  // measure 98
1000
0000
0010
0000
,  // measure 99
0100
0000
0001
0000
,  // measure 100
1000
0000
0100
0000
,  // measure 101
0010
0000
1000
0000
,  // measure 102
0100
0000
0010
0000
,  // measure 103
1000
0000
0001
0000
,  // measure 104
0100
0000
0010
0000
,  // measure 105
1000
0000
0100
0000
,  // measure 106
1000
0000
0100
0000
,  // measure 107
0001
0000
0010
0000
,  // measure 108
0001
0000
0010
0000
,  // measure 109
0001
0000
0010
0000
,  // measure 110
1000
0000
0100
0000
,  // measure 111
0001
0000
1000
0000
,  // measure 112
0010
0000
0100
0000
,  // measure 113
0010
0000
0001
0000
,  // measure 114
0010
0000
0001
0000
,  // measure 115
0010
0000
0100
0000
,  // measure 116
0001
0000
1000
0000
,  // measure 117
0010
0000
0001
0000
,  // measure 118
0010
0000
0001
0000
,  // measure 119
0100
0000
0010
0000
,  // measure 120
0001
0000
0100
0000
,  // measure 121
0001
0000
0010
0000
,  // measure 122
1000
0000
0010
0000
,  // measure 123
0100
0000
0001
0000
,  // measure 124
0100
0000
0010
0000
,  // measure 125
1000
0000
0010
0000
,  // measure 126
0100
0000
0010
0000
,  // measure 127
1000
0000
0100
0000
,  // measure 128
0001
0000
1000
0000
,  // measure 129
0100
0000
1000
0000
,  // measure 130
0100
0000
0000
0000
;
