#TITLE:Island Song (Come Along with Me);
#SUBTITLE:Adventure Time;
#ARTIST:Cartoonnetwork;
#TITLETRANSLIT:;
#SUBTITLETRANSLIT:;
#ARTISTTRANSLIT:;
#GENRE:;
#CREDIT:Gorilla v1.1.3 (Dancing Monkeys v1.06);
#BANNER:;
#BACKGROUND:;
#LYRICSPATH:;
#CDTITLE:;
#MUSIC:Island Song (Come Along with Me) (feat. Ashley Eriksson).mp3;
#OFFSET:-2.169208;
#SAMPLESTART:56.175964;
#SAMPLELENGTH:12.000000;
#SELECTABLE:YES;
#BPMS:0.000000=119.985001
;
#STOPS:
;
#BGCHANGES:;
#KEYSOUNDS:;
#ATTACKS:;

//---------------dance-single - Basic----------------
#NOTES:
     dance-single:
     Basic:
     Easy:
     3:
     0.132177,0.137398,0.000000,0.009252,0.000000,100.000000,100.000000,0.000000,1.000000,0.000000,0.000000,0.132177,0.137398,0.000000,0.009252,0.000000,100.000000,100.000000,0.000000,1.000000,0.000000,0.000000:
// measure 0
1000
0000
0010
0000
,  // measure 1
1000
0000
0010
0000
,  // measure 2
0001
0000
0010
0000
,  // measure 3
1000
0000
0100
0000
,  // measure 4
0001
0000
0010
0000
,  // measure 5
0001
0000
0010
0000
,  // measure 6
0001
0000
0100
0000
,  // measure 7
0001
0001
0001
0000
,  // measure 8
0010
0000
1000
0000
,  // measure 9
1000
0000
0010
0000
,  // measure 10
1000
0000
0010
0000
,  // measure 11
1000
0000
0010
0000
,  // measure 12
0001
0000
1000
0000
,  // measure 13
0001
0000
0100
0000
,  // measure 14
0001
0000
0010
0000
,  // measure 15
1000
0000
0001
0000
,  // measure 16
1000
0000
0010
0000
,  // measure 17
0001
0000
0010
0000
,  // measure 18
1000
0000
0010
0000
,  // measure 19
1000
0000
0100
0000
,  // measure 20
1000
0000
0010
0000
,  // measure 21
1000
0000
0010
0000
,  // measure 22
1000
0000
0010
0000
,  // measure 23
0001
0000
0010
0000
,  // measure 24
1000
0000
0010
0000
,  // measure 25
0001
0000
0001
0000
,  // measure 26
1000
0000
0010
0000
,  // measure 27
1000
0000
0010
0000
,  // measure 28
0001
0000
0010
0000
,  // measure 29
0001
0000
0100
0000
,  // measure 30
0100
0000
1000
0000
,  // measure 31
1000
0000
0010
0000
,  // measure 32
0001
0000
0100
0000
,  // measure 33
1000
0000
0010
0000
,  // measure 34
1000
0000
0001
0000
,  // measure 35
0001
0000
0010
0000
,  // measure 36
0010
0000
0100
0000
,  // measure 37
0001
0000
1000
0000
,  // measure 38
0001
0000
0010
0000
,  // measure 39
1000
0000
0010
0000
,  // measure 40
1000
0000
0001
0000
,  // measure 41
0100
0000
1000
0000
,  // measure 42
0001
0000
0010
0000
,  // measure 43
1000
0000
0010
0000
,  // measure 44
0001
0000
0010
0000
,  // measure 45
1000
0000
0010
0000
,  // measure 46
1000
0000
0001
0000
,  // measure 47
1000
0000
0001
0000
,  // measure 48
1000
0000
0010
0000
,  // measure 49
2000
0000
3000
0000
;
