#TITLE:6Teen Theme Song;
#SUBTITLE:;
#ARTIST:Dancing Monkeys Project;
#TITLETRANSLIT:;
#SUBTITLETRANSLIT:;
#ARTISTTRANSLIT:;
#GENRE:;
#CREDIT:Gorilla v1.1.3 (Dancing Monkeys v1.06);
#BANNER:6teen_Intertitle.png;
#BACKGROUND:6teen.png;
#LYRICSPATH:;
#CDTITLE:;
#MUSIC:onlymp3.to - 6teen Theme Song Credits-uK5TGpsHKlk-192k-1696893835.mp3;
#OFFSET:-0.760104;
#SAMPLESTART:36.489273;
#SAMPLELENGTH:12.000000;
#SELECTABLE:YES;
#BPMS:0.000000=167.929993
;
#STOPS:
;
#BGCHANGES:;
#KEYSOUNDS:;
#ATTACKS:;

//---------------dance-single - Basic----------------
#NOTES:
     dance-single:
     Basic:
     Easy:
     4:
     0.152084,0.159064,0.000000,0.144163,0.000000,96.000000,96.000000,0.000000,13.000000,0.000000,0.000000,0.152084,0.159064,0.000000,0.144163,0.000000,96.000000,96.000000,0.000000,13.000000,0.000000,0.000000:
// measure 0
0000
0001
0000
0010
,  // measure 1
0000
0100
0000
0010
,  // measure 2
0000
0001
0000
1000
,  // measure 3
0000
2000
0000
0000
,  // measure 4
0000
3000
0000
1000
,  // measure 5
0000
2000
0000
0000
,  // measure 6
0000
0000
3000
1000
,  // measure 7
0000
0010
0000
0000
,  // measure 8
1000
0000
0100
0000
,  // measure 9
0001
0000
0002
0000
,  // measure 10
0000
0000
0003
0000
,  // measure 11
0100
0000
0001
0000
,  // measure 12
0010
0000
0001
0000
,  // measure 13
0000
1000
0000
0100
,  // measure 14
0000
0100
0000
1000
,  // measure 15
0000
0010
0000
0100
,  // measure 16
0000
0001
0000
0010
,  // measure 17
0000
0100
0000
1000
,  // measure 18
0000
0001
0000
0010
,  // measure 19
0000
0010
0000
0000
,  // measure 20
0001
0000
0100
0000
,  // measure 21
0001
0000
0200
0000
,  // measure 22
0000
0300
0000
0010
,  // measure 23
0000
0100
0000
0010
,  // measure 24
0000
1000
0000
0100
,  // measure 25
0000
1000
0000
0100
,  // measure 26
0000
0001
0000
0010
,  // measure 27
0000
2000
0000
0000
,  // measure 28
3000
0000
1000
0000
,  // measure 29
0010
0000
2000
0000
,  // measure 30
3000
0020
0000
0030
,  // measure 31
0002
0000
0000
0000
,  // measure 32
0003
0200
0000
0300
,  // measure 33
0000
0000
1000
0000
,  // measure 34
0001
0000
0010
0000
,  // measure 35
0001
0000
0100
0000
,  // measure 36
1000
0000
0100
0000
,  // measure 37
0001
0000
0100
0000
,  // measure 38
1000
0000
0010
0000
,  // measure 39
1000
0000
0001
0000
,  // measure 40
1000
0000
2000
0000
,  // measure 41
3000
0000
0000
0000
,  // measure 42
1000
0000
0010
0000
,  // measure 43
1000
0000
0010
0000
,  // measure 44
0100
0000
0010
0000
,  // measure 45
1000
0000
0010
0000
,  // measure 46
1000
0000
0001
0000
,  // measure 47
0100
0000
1000
0000
,  // measure 48
0010
0000
0001
0000
,  // measure 49
1000
0000
0001
0000
,  // measure 50
1000
0000
0002
0003
,  // measure 51
0000
0010
0000
1000
,  // measure 52
0000
0100
0000
1000
,  // measure 53
0000
0100
0000
0010
,  // measure 54
0000
1000
0000
0001
,  // measure 55
0000
1000
0000
2000
,  // measure 56
3000
0020
0000
0000
,  // measure 57
0000
0000
0000
0030
0000
0000
0000
0000
;
