#VERSION:0.83;
#TITLE:1001 Arabian Nights;
#SUBTITLE:;
#ARTIST:Dancing Monkeys Project;
#TITLETRANSLIT:;
#SUBTITLETRANSLIT:;
#ARTISTTRANSLIT:;
#GENRE:;
#ORIGIN:;
#CREDIT:Gorilla v1.1.3 (Dancing Monkeys v1.06);
#BANNER:artworks-8iF7yfSVSLNA6Oe6-P20TSA-t500x500.png;
#BACKGROUND:artworks-zocGbZclIH9A-0-t500x500.png;
#PREVIEWVID:;
#JACKET:;
#CDIMAGE:;
#DISCIMAGE:;
#LYRICSPATH:;
#CDTITLE:;
#MUSIC:onlymp3.to - ch_pz___1001_arabian_nights-nz4KhICXihg-192k-1706591921.mp3;
#OFFSET:-1.243958;
#SAMPLESTART:46.460121;
#SAMPLELENGTH:12.000000;
#SELECTABLE:YES;
#BPMS:0.000=138.004;
#STOPS:;
#DELAYS:;
#WARPS:;
#TIMESIGNATURES:0.000=4=4;
#TICKCOUNTS:0.000=4;
#COMBOS:0.000=1;
#SPEEDS:0.000=1.000=0.000=0;
#SCROLLS:0.000=1.000;
#FAKES:;
#LABELS:0.000=Song Start;
#BGCHANGES:;
#KEYSOUNDS:;
#ATTACKS:
;

//---------------dance-single - Basic----------------
#NOTEDATA:;
#CHARTNAME:Basic;
#STEPSTYPE:dance-single;
#DESCRIPTION:Basic;
#CHARTSTYLE:;
#DIFFICULTY:Easy;
#METER:5;
#RADARVALUES:0.283073,0.276243,0.005312,0.058436,0.000000,373.000000,372.000000,1.000000,11.000000,0.000000,0.000000,0.000000,0.000000,0.000000,0.283073,0.276243,0.005312,0.058436,0.000000,373.000000,372.000000,1.000000,11.000000,0.000000,0.000000,0.000000,0.000000,0.000000;
#CREDIT:Basic;
#NOTES:
// measure 0
0000
0000
0000
0000
,  // measure 1
0000
0000
0000
0000
,  // measure 2
0000
0000
0000
0000
,  // measure 3
0000
0020
0000
0000
,  // measure 4
0000
0000
0000
0030
,  // measure 5
0000
1000
0010
1000
,  // measure 6
0001
0100
0010
0100
,  // measure 7
1000
0001
0010
0100
,  // measure 8
1000
0001
1000
0001
,  // measure 9
1000
0010
0100
0010
,  // measure 10
1000
0100
1000
0001
,  // measure 11
1000
0001
0100
0010
,  // measure 12
0001
0010
0001
0000
,  // measure 13
2000
0000
0000
0000
,  // measure 14
3000
1000
0100
0100
,  // measure 15
0001
0010
0010
0100
,  // measure 16
0100
0010
0010
0001
,  // measure 17
1000
1000
0001
0001
,  // measure 18
1000
0100
0010
0001
,  // measure 19
0010
0100
1000
0100
,  // measure 20
0010
0001
0010
0100
,  // measure 21
1000
0100
0100
0010
,  // measure 22
0010
0001
0010
0100
,  // measure 23
1000
1000
0001
0100
,  // measure 24
0010
0001
1000
0010
,  // measure 25
0100
0001
1000
0010
,  // measure 26
0001
0100
0001
1000
,  // measure 27
0010
0100
0010
0100
,  // measure 28
0001
0010
0100
0010
,  // measure 29
1000
0100
0001
0100
,  // measure 30
1000
0001
0100
0010
,  // measure 31
0001
0100
0010
0100
,  // measure 32
0001
0010
0100
0010
,  // measure 33
1000
0001
1000
0001
,  // measure 34
1000
0010
1000
0010
,  // measure 35
0001
0010
0100
0010
,  // measure 36
0001
1000
0100
0010
,  // measure 37
1000
1000
1000
0001
,  // measure 38
1000
0010
0001
0010
,  // measure 39
1000
1000
0100
0010
,  // measure 40
0001
1000
0010
0100
,  // measure 41
0001
1000
0100
0010
,  // measure 42
0002
0000
0003
1000
,  // measure 43
1000
0001
0100
0010
,  // measure 44
1000
0001
0010
0100
,  // measure 45
0001
1000
0010
0100
,  // measure 46
1000
0001
0010
0100
,  // measure 47
1000
0001
0100
0010
,  // measure 48
0001
1000
0100
0010
,  // measure 49
0001
0010
0001
1000
,  // measure 50
1000
0001
0100
0010
,  // measure 51
0001
1000
0100
0010
,  // measure 52
1000
0001
0010
0100
,  // measure 53
1000
0001
1000
0100
,  // measure 54
0010
0001
1000
0100
,  // measure 55
0001
0100
1000
0010
,  // measure 56
1000
0100
0001
0100
,  // measure 57
0010
0001
0010
0100
,  // measure 58
0001
0001
0010
0100
,  // measure 59
0001
1000
0010
0100
,  // measure 60
1000
0001
0100
0010
,  // measure 61
1000
0100
0001
0100
,  // measure 62
0001
0001
0100
0010
,  // measure 63
0100
1000
0001
0100
,  // measure 64
1000
0001
0100
0010
,  // measure 65
1000
0001
0010
0100
,  // measure 66
0001
1000
0010
0100
,  // measure 67
0001
1000
0010
0100
,  // measure 68
1000
0001
0100
0010
,  // measure 69
1000
0001
0010
0100
,  // measure 70
1000
0001
0010
0100
,  // measure 71
0001
1000
0100
0010
,  // measure 72
2000
0000
0000
0000
,  // measure 73
3002
0000
0000
0000
2003
0000
0000
3000
,  // measure 74
0002
0000
0003
2000
,  // measure 75
0000
3000
0002
0000
,  // measure 76
2003
0000
0000
3000
,  // measure 77
0001
0001
0001
0001
,  // measure 78
0001
1000
1000
1000
,  // measure 79
1000
1000
0100
0010
,  // measure 80
0100
0010
1000
0001
,  // measure 81
1000
0001
0100
0010
,  // measure 82
1000
0001
1000
0002
,  // measure 83
0000
0000
0000
0000
0000
0000
0000
0003
,  // measure 84
0000
0100
0000
0010
0000
0100
0000
0010
,  // measure 85
0000
1000
0001
1000
,  // measure 86
0001
1000
0001
1000
,  // measure 87
0001
1000
0001
1000
,  // measure 88
0001
1000
0010
0100
,  // measure 89
0010
0100
0010
1000
,  // measure 90
0010
1000
0001
0100
,  // measure 91
0001
0010
1000
0100
,  // measure 92
0010
1000
0001
0100
,  // measure 93
1000
0001
1000
1000
,  // measure 94
0010
0100
0001
0100
,  // measure 95
1000
0010
1000
0010
,  // measure 96
0100
0001
1000
0010
,  // measure 97
1000
0001
0100
0010
,  // measure 98
1000
0100
0001
0100
,  // measure 99
0010
1000
0001
0010
,  // measure 100
1000
0100
0001
0010
,  // measure 101
1001
0100
1000
0100
,  // measure 102
0001
0100
1000
0010
,  // measure 103
0001
0100
1000
0010
,  // measure 104
0001
0000
0000
0000
;

//---------------dance-single - Basic----------------
#NOTEDATA:;
#CHARTNAME:;
#STEPSTYPE:dance-single;
#DESCRIPTION:Basic;
#CHARTSTYLE:;
#DIFFICULTY:Beginner;
#METER:5;
#RADARVALUES:0.145711,0.165347,0.005312,0.058436,0.000000,192.000000,191.000000,1.000000,11.000000,0.000000,0.000000,0.000000,0.000000,0.000000,0.145711,0.165347,0.005312,0.058436,0.000000,192.000000,191.000000,1.000000,11.000000,0.000000,0.000000,0.000000,0.000000,0.000000;
#CREDIT:;
#NOTES:
0000
0000
0000
0000
,
0000
0000
0000
0000
,
0000
0000
0000
0000
,
0000
0020
0000
0000
,
0000
0000
0000
0030
,
0000
0001
0000
1000
,
0000
0100
0000
0100
,
0000
0001
0000
0100
,
0000
0010
0000
0001
,
0000
0010
0000
0010
,
0000
0100
0000
0001
,
0000
0100
0000
0001
,
0000
0010
0000
0000
,
2000
0000
0000
0000
,
3000
0000
0100
0000
,
0001
0000
0010
0000
,
0100
0000
0010
0000
,
1000
0000
0001
0000
,
1000
0000
0010
0000
,
0010
0000
1000
0000
,
0010
0000
0010
0000
,
1000
0000
0100
0000
,
0010
0000
0010
0000
,
1000
0000
0001
0000
,
0010
0000
1000
0000
,
0100
0000
1000
0000
,
0001
0000
1000
0000
,
0010
0000
0100
0000
,
1000
0000
0100
0000
,
1000
0000
0001
0000
,
1000
0000
0100
0000
,
1001
0000
0010
0000
,
1000
0000
0100
0000
,
0010
0000
0100
0000
,
0010
0000
0100
0000
,
1000
0000
0100
0000
,
0001
0000
0100
0000
,
0001
0000
0010
0000
,
0100
0000
1000
0000
,
0001
0000
0100
0000
,
0001
0000
0010
0000
,
0001
0000
0100
0000
,
2000
0000
3000
0000
,
1000
0000
0100
0000
,
1000
0000
0010
0000
,
0001
0000
0010
0000
,
1000
0000
0010
0000
,
1000
0000
0100
0000
,
0001
0000
0100
0000
,
0001
0000
0001
0000
,
1000
0000
0100
0000
,
0001
0000
0100
0000
,
1000
0000
0010
0000
,
1000
0000
1000
0000
,
0010
0000
1000
0000
,
0001
0000
1000
0000
,
0001
0000
1000
0000
,
0100
0000
0010
0000
,
1000
0000
0010
0000
,
0001
0000
0010
0000
,
1000
0000
0100
0000
,
0010
0000
0001
0000
,
0010
0000
0100
0000
,
0100
0000
0001
0000
,
1000
0000
0100
0000
,
1000
0000
0010
0000
,
0001
0000
0010
0000
,
0001
0000
0010
0000
,
1000
0000
0100
0000
,
1000
0000
0010
0000
,
1000
0000
0010
0000
,
0001
0000
0100
0000
,
2000
0000
0000
0000
,
3002
0000
0000
0000
2003
0000
0000
3000
,
0002
0000
0003
2000
,
0000
3000
0002
0000
,
2003
0000
0000
3000
,
0010
0000
0001
0000
,
0010
0000
1000
0000
,
0010
0000
1000
0000
,
0100
0000
1000
0000
,
0010
0000
0100
0000
,
0010
0000
1000
2000
,
0000
0000
0000
3000
,
0000
0100
0000
0000
0000
0010
0000
0000
,
0000
1000
0000
1000
,
0000
0001
0000
0100
,
0000
0010
0000
1000
,
0000
0001
0000
0100
,
0000
0010
0000
1000
,
0000
0100
0000
0010
,
0000
0001
0000
0100
,
0000
1000
0000
0100
,
0000
0001
0000
1000
,
0000
0001
0000
0100
,
0000
0001
0000
0010
,
0000
0001
0000
0010
,
0000
0001
0000
0010
,
0000
1000
0000
0100
,
0000
1000
0000
0010
,
0000
0100
0000
0010
,
0000
1000
0000
0001
,
0000
0100
0000
0010
,
0000
0100
0000
0010
;
