#TITLE:repeat;
#SUBTITLE:;
#ARTIST:kiyosumi;
#TITLETRANSLIT:;
#SUBTITLETRANSLIT:;
#ARTISTTRANSLIT:;
#GENRE:;
#CREDIT:;
#MUSIC:repeat.ogg;
#BANNER:repeat-bn.png;
#BACKGROUND:repeat-bg.png;
#CDTITLE:;
#SAMPLESTART:32.360;
#SAMPLELENGTH:14.831;
#SELECTABLE:YES;
#OFFSET:0.000;
#BPMS:0.000=178.000
,80.000=89.000
,88.000=178.000
,264.000=89.000
,272.000=178.000
;
#STOPS:;
#BGCHANGES:-0.050=repeat.mp4=1.000=1=0=1=0==CrossFade==;
#FGCHANGES:;

//--------------- dance-single - Sparks ----------------
#NOTES:
     dance-single:
     Sparks:
     Hard:
     15:
     0,0,0,0,0:
0000
0000
0000
0000
,
0000
0000
0000
0000
,
0000
0000
0000
0000
,
0000
0000
0000
0000
,
1000
0000
0100
0000
0010
0001
0100
0000
,
0010
0000
0000
1000
0000
0000
0100
0000
0000
0000
0000
0000
0010
0000
0000
0100
0000
0000
1000
0000
0000
0001
0010
0100
,
1000
0000
1000
0000
0100
0010
0001
0000
,
0100
0000
0000
0010
0000
0000
1000
0000
0000
0000
0000
0000
0001
0000
0000
0100
0000
0000
0010
0000
0000
1000
0010
0100
,
0002
0000
0020
0003
0200
0030
2000
0300
,
0000
0001
3002
0000
0200
0003
0000
0300
,
0010
0000
0100
0001
0000
0000
0010
0000
,
0001
0100
1000
0010
,
0001
0100
0000
0001
0010
0000
0001
0100
,
0010
1000
0100
1000
0010
0100
0010
1000
,
0100
0010
0100
0010
0001
0100
0010
2000
,
0001
0000
0100
3000
0010
0000
0001
0000
0200
0000
0010
0000
0001
0000
0300
0000
,
0100
0000
0000
0020
1000
0000
0000
0100
,
0000
0000
1000
0000
1030
0001
0010
0000
,
0100
0000
1000
1000
0000
0001
1001
0100
,
0010
1001
0010
0100
0200
0301
0200
0301
,
2000
0000
0100
0100
3100
0000
0002
0010
0000
0000
0100
0000
0103
0000
1000
0010
,
1000
0000
1000
0100
0000
0100
0010
0001
0100
0010
0000
0010
0100
0000
0100
0000
,
1000
0000
0010
0000
0100
0000
0001
0100
0010
1000
0100
0000
0010
0000
0001
0000
,
0011
0101
1100
1010
,
1001
0110
1001
0110
,
0010
0001
0010
0001
0100
0010
1000
0100
,
0010
0000
0001
0000
0010
0000
0001
0010
0100
1000
0001
0000
0100
0000
0010
0000
,
1001
1100
0011
0101
,
1001
0110
1001
0110
,
1000
0010
1000
0010
0100
0001
0010
1000
,
0010
0000
0001
0000
0100
0000
0010
0100
0001
0010
0100
0000
1000
0000
0001
0000
,
0011
0101
0110
1001
,
1100
0011
1100
0011
,
1000
0001
1000
0001
0100
0010
1000
0100
,
0010
0000
0100
0000
1000
0000
0001
0010
0100
1000
0001
0000
0100
0000
0010
0000
,
1001
0110
1001
0110
,
1010
0101
0011
1100
,
0010
0100
0010
0100
0001
0010
0100
1000
,
0100
0010
0000
1000
0100
0000
0001
0010
,
0100
1000
0100
1000
0100
0001
0100
1000
,
0010
0100
0001
0100
0010
1000
0100
0010
,
1000
0100
0010
0001
0100
0010
0001
0000
,
0010
1000
0000
1000
0100
0000
0100
0010
,
0001
0100
0001
0100
0001
1000
0001
0100
,
0010
1000
0010
0001
1000
0100
0001
1000
,
0100
0010
0001
0010
1000
0001
0100
1000
,
0001
0000
0001
0000
0000
0001
0001
0000
,
0000
0000
0000
0000
0000
0000
0001
0000
0000
0000
0000
0000
0001
0000
0000
0000
0000
0000
0000
0000
0000
0000
0000
0000
0000
0000
0000
0000
0000
0000
0001
0000
0000
1000
0000
0000
0001
0000
0000
1000
0000
0000
0001
0000
0010
0000
0100
0000
,
1000
0000
1000
0000
0000
1000
1000
0000
,
0000
0000
0000
0000
0000
0000
1000
0000
0000
0000
0000
0000
1000
0000
0000
0000
0000
0000
0000
0000
0000
0000
0000
0000
0000
0000
0000
0000
0000
0000
1000
0000
0000
0100
0000
0000
1000
0000
0000
0100
0000
0000
1000
0000
0010
0000
0200
0000
,
0001
0000
0001
0000
0000
1000
0010
0000
,
0000
0000
0000
0000
0000
0000
0001
0000
0000
0000
0000
0000
0010
0000
0000
0000
0000
0000
0000
0000
0000
0000
0000
0000
0300
0000
0000
0000
0000
0000
1000
0000
0000
0010
0000
0000
1000
0000
0000
0010
0000
0000
0100
0000
0001
0000
1000
0000
,
0200
0000
0010
0000
0000
1000
0001
0000
,
0000
0000
0000
0000
0000
0000
0001
0000
0000
0000
0000
0000
1000
0000
0000
0000
0000
0000
0000
0000
0000
0000
0000
0000
0300
0000
0000
0000
0000
0000
0010
0000
0000
0100
0000
0000
0010
0000
0000
0100
0000
0000
1000
0000
0001
0000
0100
0000
,
0002
0000
2000
0003
0200
3000
0002
0000
,
0000
0000
0000
0003
0020
0000
0000
0000
,
0000
0300
0002
0000
0000
0000
0033
0000
,
0001
0000
0000
0000
1000
0000
0000
0000
0010
0000
0001
0010
1000
0100
0010
0000
,
0001
0010
0000
1000
0010
0000
0001
0010
,
0110
0100
1100
0100
0000
0001
0000
0100
,
1000
0010
1000
0100
0010
0001
0100
1010
,
0010
0000
1000
0010
0100
1001
1000
0000
,
0010
0001
1000
0000
0010
0001
1000
0010
,
0000
0000
1000
0000
0010
0000
0100
0100
,
0001
0000
0100
0110
0000
0010
0101
0010
,
1000
0011
1000
0100
0200
1300
0200
1300
,
0010
0000
0100
0001
0020
0000
1000
1000
0000
0000
0031
0000
1000
0000
0010
0100
,
0001
0000
1000
0010
0000
0001
0100
0010
1000
0100
0000
0100
1000
0000
1000
0000
,
0010
0010
0010
0010
0010
0010
0010
0010
,
0110
1001
0110
2001
,
0010
0001
0010
3001
,
0100
0000
0010
0000
1000
0000
0010
0100
0001
1000
0100
0000
0010
0000
0000
0000
,
1000
1000
1000
1000
1000
1000
1000
1000
,
1100
1010
1100
1020
,
0001
1000
0001
1030
,
0001
0000
0010
0000
0001
0000
1000
0010
0001
0010
0100
0000
0010
0000
0000
0000
,
0100
0100
0100
0100
0100
0100
0100
0100
,
0110
1010
1001
0021
,
0100
1000
0100
0031
,
0100
0000
0001
0000
0100
0000
0010
1000
0001
0010
0100
0000
1000
0000
0000
0000
,
0001
0001
0001
0001
0001
0001
0001
0001
,
0011
1010
0011
1200
,
0010
0001
0010
1300
,
0010
0000
0100
0000
0010
0000
0100
0001
0010
0100
1000
0000
0001
0000
0000
0000
,
0010
0001
0000
0100
0001
0000
0001
1000
,
0010
0100
0010
0100
0010
1000
0010
0100
,
0001
0010
0001
0010
0100
1000
0001
0100
,
1000
0001
1000
0010
1000
0100
0001
0000
,
0010
1000
0000
1000
0100
0000
0100
1000
,
0001
0100
0001
0100
0001
0010
0001
0100
,
0010
1000
0010
1000
0100
0010
0001
0010
,
1000
0010
0100
0001
0010
0100
0001
1000
,
0100
0010
0100
0010
0100
0010
0100
0010
,
0011
1100
0011
1100
,
0010
0000
0001
0100
0010
0000
1000
0100
0010
0000
0001
0100
0010
0000
1000
0100
,
0010
0010
0010
0010
0010
0100
1000
0001
,
0220
0330
0000
0000
0000
0000
0000
0000
;
